<?xml version="1.0" standalone="no"?>
<!DOCTYPE svg PUBLIC "-//W3C//DTD SVG 1.1//EN" "http://www.w3.org/Graphics/SVG/1.1/DTD/svg11.dtd">
<svg xmlns="http://www.w3.org/2000/svg">
<defs >
<font id="Cabin" horiz-adv-x="534" ><font-face
    font-family="Cabin SemiBold"
    units-per-em="1000"
    panose-1="0 0 7 0 0 0 0 0 0 0"
    ascent="965"
    descent="-250"
    alphabetic="0" />
<glyph unicode=" " glyph-name="space" horiz-adv-x="225" />
<glyph unicode="!" glyph-name="exclam" horiz-adv-x="247" d="M76 222L62 700H186L171 222V194H76V222ZM63 125H185V0H63V125Z" />
<glyph unicode="&quot;" glyph-name="quotedbl" horiz-adv-x="342" d="M32 700H147L128 496H51L32 700ZM195 700H310L291 496H214L195 700Z" />
<glyph unicode="#" glyph-name="numbersign" horiz-adv-x="708" d="M150 213H32L76 312H189L229 417H106L137 510H264L338 700H427L354 510H475L548 700H637L564 510H676L644 417H529L489 312H615L570 213H451L366 -11H276L361 213H241L155 -11H66L150 213ZM398
312L440 417H319L278 312H398Z" />
<glyph unicode="$" glyph-name="dollar" horiz-adv-x="581" d="M552 114T506 59T350 -10L358 -144H267L274 -14Q215 -13 151 2T49 35L63 158Q193 96 298 96Q357 96 390 118T423 184Q423 218 406 239T354 275T253 313Q188 334 145 358T77 421T51 518Q51 601 109
653T275 713L267 844H358L350 712Q444 704 525 668L513 548Q453 577 402 591T297 605Q237 605 204 585T171 522Q171 492 187 473T233 440T319 409Q439 372 495 323T552 187Q552 114 506 59Z" />
<glyph unicode="%" glyph-name="percent" horiz-adv-x="912" d="M134 314T89 370T44 517Q44 606 90 660T213 714Q290 714 336 660T382 517Q382 427 337 371T213 314Q134 314 89 370ZM249 396T268 427T287 517Q287 574 268 603T213 632Q179 632 159 603T138 517Q138
458 157 427T213 396Q249 396 268 427ZM615 700H708L300 0H205L615 700ZM620 -14T575 42T530 189Q530 278 576 332T699 386Q776 386 822 332T868 189Q868 99 823 43T699 -14Q620 -14 575 42ZM735 68T754 99T773 189Q773 246 754 275T699 304Q665 304 645 275T624
189Q624 130 643 99T699 68Q735 68 754 99Z" />
<glyph unicode="&amp;" glyph-name="ampersand" horiz-adv-x="621" d="M188 -24T137 2T59 71T33 166Q33 227 65 275T157 367Q82 458 82 537Q82 588 108 625T177 683T270 703Q350 703 393 664T437 561Q437 520 417 487T366 427T285 366L443 193Q461 240 464 352H569Q566
205 514 113L613 0H488L452 38Q413 7 368 -8T263 -24Q188 -24 137 2ZM290 459T314 487T338 551Q338 583 320 599T268 615Q234 615 212 594T189 533Q189 483 238 423Q290 459 314 487ZM350 62T395 105L210 305Q147 249 147 175Q147 127 177 95T274 62Q350 62 395
105Z" />
<glyph unicode="&apos;" glyph-name="quotesingle" horiz-adv-x="180" d="M32 700H147L128 496H51L32 700Z" />
<glyph unicode="(" glyph-name="parenleft" horiz-adv-x="323" d="M136 -41T100 64T64 307Q64 445 100 550T198 750H294Q239 657 207 550T175 307Q175 172 207 65T294 -136H198Q136 -41 100 64Z" />
<glyph unicode=")" glyph-name="parenright" horiz-adv-x="323" d="M84 -42T115 65T147 307Q147 442 116 549T29 750H125Q187 655 223 550T259 307Q259 169 223 64T125 -136H29Q84 -42 115 65Z" />
<glyph unicode="*" glyph-name="asterisk" horiz-adv-x="432" d="M162 560L31 637L68 694L187 612L182 753H250L245 612L364 694L401 637L270 560L401 483L364 426L245 508L250 364H182L187 508L68 426L31 483L162 560Z" />
<glyph unicode="+" glyph-name="plus" horiz-adv-x="447" d="M177 235H42V322H177V456H271V322H405V235H271V101H177V235Z" />
<glyph unicode="," glyph-name="comma" horiz-adv-x="226" d="M60 -115L101 0H55V125H177V11L118 -115H60Z" />
<glyph unicode="-" glyph-name="hyphen" horiz-adv-x="420" d="M55 357H365V265H55V357Z" />
<glyph unicode="." glyph-name="period" horiz-adv-x="217" d="M47 125H169V0H47V125Z" />
<glyph unicode="/" glyph-name="slash" horiz-adv-x="346" d="M259 700H373L105 -85H-9L259 700Z" />
<glyph unicode="0" glyph-name="zero" horiz-adv-x="703" d="M263 -14T197 32T94 163T57 356Q57 461 94 542T198 669T352 714Q440 714 507 669T610 543T647 356Q647 247 611 163T508 33T352 -14Q263 -14 197 32ZM434 90T481 157T528 356Q528 481 480 546T352 611Q272
611 224 546T175 356Q175 225 222 158T352 90Q434 90 481 157Z" />
<glyph unicode="1" glyph-name="one" horiz-adv-x="353" d="M148 535Q101 501 54 490L41 591Q77 600 118 632T177 700H263V0H148V535Z" />
<glyph unicode="2" glyph-name="two" horiz-adv-x="527" d="M235 286Q291 371 313 418T336 506Q336 552 310 579T238 606Q151 606 68 523L54 641Q145 714 258 714Q319 714 362 689T428 620T450 524Q450 463 425 403T336 246L245 108H475V0H49L235 286Z" />
<glyph unicode="3" glyph-name="three" horiz-adv-x="540" d="M414 349T447 305T480 196Q480 98 413 42T234 -14Q177 -14 126 -1T36 34L64 135Q154 87 235 87Q294 87 328 115T362 195Q362 251 327 280T220 309H159V417H219Q277 417 309 443T341 518Q341 563 314
588T235 613Q195 613 159 600T81 562L64 669Q145 714 248 714Q347 714 401 664T456 533Q456 476 430 434T355 369Q414 349 447 305Z" />
<glyph unicode="4" glyph-name="four" horiz-adv-x="605" d="M562 263V168H472V0H359V168H12L392 700H472V263H562ZM359 263V496L195 263H359Z" />
<glyph unicode="5" glyph-name="five" horiz-adv-x="538" d="M329 441T381 414T461 336T490 218Q490 148 458 96T370 15T243 -13Q187 -13 138 1T50 42L77 147Q119 122 157 109T240 96Q300 96 336 129T373 218Q373 279 333 312T220 346Q162 346 85 329L130 700H460L453
588H219L200 437Q238 441 260 441Q329 441 381 414Z" />
<glyph unicode="6" glyph-name="six" horiz-adv-x="564" d="M375 421T422 394T495 318T522 209Q522 143 494 93T413 14T292 -14Q219 -14 165 18T82 110T53 247Q53 352 100 444T219 605T369 714L450 647Q372 609 296 539T185 384Q238 421 316 421Q375 421 422 394ZM345
83T378 118T412 205Q412 256 379 289T293 323Q241 323 207 290T173 205Q173 153 207 118T293 83Q345 83 378 118Z" />
<glyph unicode="7" glyph-name="seven" horiz-adv-x="507" d="M499 700L203 0H82L331 591H42V700H499Z" />
<glyph unicode="8" glyph-name="eight" horiz-adv-x="605" d="M492 355T519 308T547 201Q547 138 517 89T432 13T302 -14Q228 -14 173 13T87 89T57 201Q57 261 85 308T164 382Q129 407 109 444T89 525Q89 574 111 617T182 687T302 714Q374 714 421 687T489 617T511
525Q511 480 493 443T441 382Q492 355 519 308ZM252 619T224 593T195 524Q195 483 224 456T302 429Q352 429 378 456T405 524Q405 567 379 593T302 619Q252 619 224 593ZM365 87T401 119T437 206Q437 260 401 293T302 327Q240 327 204 294T168 206Q168 151 203
119T302 87Q365 87 401 119Z" />
<glyph unicode="9" glyph-name="nine" horiz-adv-x="564" d="M349 714T403 682T486 590T515 453Q515 351 470 262T354 106T209 0L128 67Q201 103 274 168T382 315Q329 279 252 279Q193 279 146 306T73 382T46 491Q46 557 74 607T155 686T276 714Q349 714 403 682ZM327
379T360 412T393 495Q393 546 360 580T275 614Q224 614 191 580T157 495Q157 445 190 412T275 379Q327 379 360 412Z" />
<glyph unicode=":" glyph-name="colon" horiz-adv-x="217" d="M47 496H169V371H47V496ZM47 125H169V0H47V125Z" />
<glyph unicode=";" glyph-name="semicolon" horiz-adv-x="225" d="M60 -115L101 0H55V125H177V11L118 -115H60ZM55 496H177V371H55V496Z" />
<glyph unicode="&lt;" glyph-name="less" horiz-adv-x="413" d="M39 230V327L392 488V390L132 278L392 167V70L39 230Z" />
<glyph unicode="=" glyph-name="equal" horiz-adv-x="447" d="M42 400H405V314H42V400ZM42 240H405V154H42V240Z" />
<glyph unicode="&gt;" glyph-name="greater" horiz-adv-x="413" d="M21 167L281 278L21 390V488L374 327V230L21 70V167Z" />
<glyph unicode="?" glyph-name="question" horiz-adv-x="465" d="M135 210Q135 264 155 301T217 383Q261 430 278 456T295 519Q295 559 268 581T198 604Q161 604 128 594T59 566L47 671Q87 692 129 703T225 714Q286 714 330 691T398 627T422 537Q422 487 400 449T330
361Q291 318 272 287T253 216V194H135V210ZM133 125H255V0H133V125Z" />
<glyph unicode="@" glyph-name="at" horiz-adv-x="723" d="M182 -87T116 -19T49 170Q49 276 100 364T239 502T426 553Q543 553 609 485T675 300Q675 215 640 155T533 94Q511 94 501 104T490 145Q490 170 496 196T517 274Q534 332 545 379Q523 402 493 417T424
432Q363 432 304 391T207 285T169 153Q169 105 191 73T260 40Q306 40 357 71T440 156Q437 135 437 121Q437 91 451 67T495 42Q519 42 553 58T614 96L617 93Q567 11 482 -38T297 -87Q182 -87 116 -19ZM271 106T260 124T249 173Q249 225 278 270T351 343T433 371Q470
371 478 349Q469 297 437 240T365 144T293 106Q271 106 260 124Z" />
<glyph unicode="A" glyph-name="A" horiz-adv-x="622" d="M441 174H181L120 0H4L254 700H368L617 0H502L441 174ZM404 277L311 543L217 277H404Z" />
<glyph unicode="B" glyph-name="B" horiz-adv-x="615" d="M586 343T586 199Q586 106 526 53T360 0H78V700H326Q425 700 476 657T527 530Q527 479 508 442T452 382Q586 343 586 199ZM194 419H310Q360 419 385 439T411 508Q411 556 386 576T310 597H194V419ZM464
104T464 209Q464 266 433 290T345 315H194V104H345Q464 104 464 209Z" />
<glyph unicode="C" glyph-name="C" horiz-adv-x="612" d="M289 -14T208 31T82 158T36 350Q36 459 82 541T211 669T397 714Q449 714 496 703T580 673L568 563Q481 604 396 604Q322 604 270 572T190 482T163 350Q163 276 189 219T268 129T394 96Q441 96 482 106T568
136L580 27Q496 -14 393 -14Q289 -14 208 31Z" />
<glyph unicode="D" glyph-name="D" horiz-adv-x="723" d="M78 700H339Q440 700 518 658T641 537T685 350Q685 242 641 163T519 42T339 0H78V700ZM339 104Q446 104 502 169T558 350Q558 465 502 530T339 596H194V104H339Z" />
<glyph unicode="E" glyph-name="E" horiz-adv-x="563" d="M78 700H518V590H196V420H449V310H196V110H528V0H78V700Z" />
<glyph unicode="F" glyph-name="F" horiz-adv-x="524" d="M78 700H508V590H194V420H436V310H194V0H78V700Z" />
<glyph unicode="G" glyph-name="G" horiz-adv-x="667" d="M281 -14T202 31T79 158T36 351Q36 459 82 541T212 669T401 714Q455 714 506 703T595 673L583 566Q493 604 402 604Q284 604 224 535T163 352Q163 236 223 166T399 96Q451 96 502 109V252H401V351H618V39Q577
16 517 1T386 -14Q281 -14 202 31Z" />
<glyph unicode="H" glyph-name="H" horiz-adv-x="721" d="M78 700H194V419H527V700H643V0H527V310H194V0H78V700Z" />
<glyph unicode="I" glyph-name="I" horiz-adv-x="272" d="M78 700H194V0H78V700Z" />
<glyph unicode="J" glyph-name="J" horiz-adv-x="272" d="M-10 -72Q38 -72 58 -52T78 18V700H194V-8Q194 -93 154 -132T34 -172H2L-10 -72Z" />
<glyph unicode="K" glyph-name="K" horiz-adv-x="605" d="M78 700H194V0H78V700ZM204 370L463 700H600L338 371L601 0H463L204 370Z" />
<glyph unicode="L" glyph-name="L" horiz-adv-x="500" d="M78 700H194V104H494V0H78V700Z" />
<glyph unicode="M" glyph-name="M" horiz-adv-x="825" d="M659 0L597 490L414 154L229 491L166 0H45L141 700H238L413 371L588 700H684L780 0H659Z" />
<glyph unicode="N" glyph-name="N" horiz-adv-x="706" d="M78 700H196L511 222V700H628V0H532L194 507V0H78V700Z" />
<glyph unicode="O" glyph-name="O" horiz-adv-x="764" d="M282 -14T204 31T82 158T37 350Q37 459 81 541T204 669T382 714Q482 714 560 669T682 542T727 350Q727 241 683 159T560 31T382 -14Q282 -14 204 31ZM489 98T546 168T604 350Q604 462 547 532T382 602Q275
602 217 532T159 350Q159 238 217 168T382 98Q489 98 546 168Z" />
<glyph unicode="P" glyph-name="P" horiz-adv-x="587" d="M78 700H321Q565 700 565 474Q565 358 502 301T322 244H196V0H78V700ZM308 343Q378 343 412 374T447 472Q447 539 413 570T306 601H196V343H308Z" />
<glyph unicode="Q" glyph-name="Q" horiz-adv-x="764" d="M727 211T657 118L721 57L651 -17L585 47Q497 -14 382 -14Q282 -14 204 31T82 158T37 350Q37 459 81 541T204 669T382 714Q482 714 560 669T682 542T727 350Q727 211 657 118ZM449 98T500 128L416 209L485
283L570 202Q604 263 604 350Q604 462 547 532T382 602Q275 602 217 532T159 350Q159 238 217 168T382 98Q449 98 500 128Z" />
<glyph unicode="R" glyph-name="R" horiz-adv-x="618" d="M78 700H324Q437 700 501 647T565 488Q565 415 534 368T445 293L602 0H469L332 265H327H196V0H78V700ZM302 364Q375 364 409 395T444 483Q444 601 305 601H196V364H302Z" />
<glyph unicode="S" glyph-name="S" horiz-adv-x="581" d="M220 -14T154 1T49 35L63 158Q193 96 298 96Q357 96 390 118T423 184Q423 218 406 239T354 275T253 313Q188 334 145 358T77 421T51 518Q51 606 116 660T304 714Q364 714 422 701T525 668L513 548Q453
577 402 591T297 605Q237 605 204 585T171 522Q171 492 187 473T233 440T319 409Q439 372 495 323T552 187Q552 102 490 44T280 -14Q220 -14 154 1Z" />
<glyph unicode="T" glyph-name="T" horiz-adv-x="546" d="M215 590H15V700H531V590H331V0H215V590Z" />
<glyph unicode="U" glyph-name="U" horiz-adv-x="720" d="M216 -14T143 69T70 299V700H186V329Q186 217 222 157T360 96Q461 96 497 156T534 329V700H650V299Q650 152 577 69T360 -14Q216 -14 143 69Z" />
<glyph unicode="V" glyph-name="V" horiz-adv-x="616" d="M614 700L365 0H251L1 700H120L308 166L496 700H614Z" />
<glyph unicode="W" glyph-name="W" horiz-adv-x="957" d="M8 700H129L272 174L433 695H526L691 182L831 700H952L749 0H640L479 502L319 0H205L8 700Z" />
<glyph unicode="X" glyph-name="X" horiz-adv-x="614" d="M243 357L9 700H140L307 452L474 700H605L372 357L614 0H483L307 261L131 0H0L243 357Z" />
<glyph unicode="Y" glyph-name="Y" horiz-adv-x="591" d="M599 700L353 290V0H237V290L-9 700H119L295 397L471 700H599Z" />
<glyph unicode="Z" glyph-name="Z" horiz-adv-x="548" d="M190 104H536V0H8L359 596H53V700H541L190 104Z" />
<glyph unicode="[" glyph-name="bracketleft" horiz-adv-x="332" d="M68 750H325V656H170V-42H325V-136H68V750Z" />
<glyph unicode="\" glyph-name="backslash" horiz-adv-x="326" d="M-9 700H105L353 -85H239L-9 700Z" />
<glyph unicode="]" glyph-name="bracketright" horiz-adv-x="332" d="M7 -42H162V656H7V750H264V-136H7V-42Z" />
<glyph unicode="^" glyph-name="asciicircum" horiz-adv-x="512" d="M50 546L256 759L462 546V425L256 615L50 425V546Z" />
<glyph unicode="_" glyph-name="underscore" horiz-adv-x="561" d="M0 -36H560V-127H0V-36Z" />
<glyph unicode="`" glyph-name="grave" horiz-adv-x="473" d="M140 647V756L333 645V572L140 647Z" />
<glyph unicode="a" glyph-name="a" horiz-adv-x="491" d="M105 -10T64 30T22 137Q22 202 68 241T178 296T307 315Q306 367 284 387T211 408Q179 408 148 399T77 368L65 459Q149 505 242 505Q332 505 376 456T420 292V169Q420 130 423 113T436 88T468 81H482L469
-10H438Q390 -10 364 6T321 53Q295 24 255 7T169 -10Q105 -10 64 30ZM234 77T261 89T308 124V239Q231 236 185 212T138 142Q138 77 209 77Q234 77 261 89Z" />
<glyph unicode="b" glyph-name="b" horiz-adv-x="565" d="M382 505T432 470T509 377T536 248Q536 177 509 118T431 25T312 -10Q224 -10 166 42L161 0H58V750H170V453Q232 505 312 505Q382 505 432 470ZM354 84T387 129T421 248Q421 321 388 366T297 411Q234 411
199 368T164 248Q164 170 199 127T297 84Q354 84 387 129Z" />
<glyph unicode="c" glyph-name="c" horiz-adv-x="455" d="M207 -10T149 24T60 116T30 246Q30 320 59 379T148 472T294 506Q369 506 428 475L416 383Q358 411 301 411Q226 411 185 367T144 248Q144 174 185 129T299 84Q361 84 417 116L429 23Q403 8 366 -1T289
-10Q207 -10 149 24Z" />
<glyph unicode="d" glyph-name="d" horiz-adv-x="565" d="M507 750V0H404L399 42Q342 -10 258 -10Q189 -10 137 24T57 117T29 247Q29 317 56 376T135 470T258 505Q339 505 395 457V750H507ZM334 84T368 127T403 247Q403 323 368 367T275 411Q214 411 179 366T144
247Q144 175 179 130T275 84Q334 84 368 127Z" />
<glyph unicode="e" glyph-name="e" horiz-adv-x="514" d="M212 -10T152 25T60 119T29 252Q29 322 57 379T141 471T272 505Q338 505 386 478T460 402T486 292Q486 260 479 231H145Q154 154 198 119T309 84Q390 84 456 121L464 28Q388 -10 298 -10Q212 -10 152 25ZM372
307Q372 351 347 381T271 411Q174 411 149 307H372Z" />
<glyph unicode="f" glyph-name="f" horiz-adv-x="337" d="M91 406H14L26 496H91V606Q91 673 129 711T237 750Q282 750 317 740L305 648Q284 655 262 655Q202 655 202 590V496H320V406H202V0H91V406Z" />
<glyph unicode="g" glyph-name="g" horiz-adv-x="500" d="M152 -251T89 -213T25 -107Q25 -33 107 10Q62 36 62 77Q62 125 115 148Q76 174 56 216T35 310Q35 365 59 409T128 480T237 506Q305 506 354 472Q373 483 402 490T466 497H489L480 426H443Q424 426 405
422Q440 375 440 310Q440 255 416 210T346 139T237 112Q209 112 180 120Q164 114 164 100Q164 88 179 80T228 68L330 53Q500 29 500 -90Q500 -166 436 -208T257 -251Q152 -251 89 -213ZM285 197T311 227T337 310Q337 362 311 392T237 422Q189 422 163 392T137 310Q137
258 163 228T237 197Q285 197 311 227ZM397 -162T397 -97Q397 -70 375 -56T303 -33L183 -14Q155 -25 139 -43T122 -87Q122 -125 159 -143T263 -162Q397 -162 397 -97Z" />
<glyph unicode="h" glyph-name="h" horiz-adv-x="548" d="M399 505T446 444T494 276V0H382V266Q382 341 357 376T277 411Q211 411 170 360V0H58V750H170V458Q200 481 232 493T305 505Q399 505 446 444Z" />
<glyph unicode="i" glyph-name="i" horiz-adv-x="230" d="M59 700H171V585H59V700ZM59 496H171V0H59V496Z" />
<glyph unicode="j" glyph-name="j" horiz-adv-x="230" d="M59 700H171V585H59V700ZM-6 -152Q33 -151 46 -133T59 -65V496H171V-110Q171 -180 137 -208T41 -240L5 -242L-6 -152Z" />
<glyph unicode="k" glyph-name="k" horiz-adv-x="472" d="M58 750H170V286L334 496H463L276 261L467 0H338L170 232V0H58V750Z" />
<glyph unicode="l" glyph-name="l" horiz-adv-x="253" d="M122 -10T91 25T59 116V750H170V168Q170 126 175 109T193 86T237 81L226 -10H186Q122 -10 91 25Z" />
<glyph unicode="m" glyph-name="m" horiz-adv-x="872" d="M722 505T770 448T818 282V0H706V276Q706 346 683 378T605 411Q546 411 520 375T494 280V0H383V269Q383 345 358 378T280 411Q209 411 171 361V0H59V496H152L159 452Q225 505 308 505Q410 505 457 426Q483
464 525 484T624 505Q722 505 770 448Z" />
<glyph unicode="n" glyph-name="n" horiz-adv-x="555" d="M404 505T452 444T500 276V0H389V269Q389 343 364 377T279 411Q209 411 171 362V0H59V496H158L162 455Q226 505 307 505Q404 505 452 444Z" />
<glyph unicode="o" glyph-name="o" horiz-adv-x="563" d="M204 -10T147 24T60 118T29 248Q29 319 59 378T147 471T281 506Q359 506 416 472T503 378T533 248Q533 177 503 118T416 25T281 -10Q204 -10 147 24ZM346 84T382 128T419 248Q419 323 383 367T281 412Q216
412 180 368T144 248Q144 172 180 128T281 84Q346 84 382 128Z" />
<glyph unicode="p" glyph-name="p" horiz-adv-x="567" d="M385 505T435 471T511 379T537 248Q537 176 512 117T436 24T316 -10Q268 -10 234 2T171 40V-242H59V496H148L160 443Q192 473 229 489T316 505Q385 505 435 471ZM356 84T389 128T422 248Q422 323 389 367T297
411Q234 411 200 368T165 248Q165 170 199 127T297 84Q356 84 389 128Z" />
<glyph unicode="q" glyph-name="q" horiz-adv-x="567" d="M507 496V-242H396V40Q343 -10 256 -10Q184 -10 133 24T56 117T30 248Q30 318 56 376T134 470T255 505Q305 505 342 490T408 444L422 496H507ZM334 84T367 127T401 248Q401 325 368 368T273 411Q213 411
179 367T144 248Q144 172 178 128T273 84Q334 84 367 127Z" />
<glyph unicode="r" glyph-name="r" horiz-adv-x="325" d="M59 496H160L166 433Q193 466 228 486T301 506Q311 506 323 504L314 390Q298 395 276 395Q243 395 214 380T173 343V0H59V496Z" />
<glyph unicode="s" glyph-name="s" horiz-adv-x="420" d="M109 -10T31 29L42 128Q119 78 196 78Q237 78 258 91T280 132Q280 162 258 177T186 210Q113 235 76 267T38 360Q38 424 86 465T223 506Q305 506 370 470L359 373Q326 397 294 410T225 423Q188 423 168
409T148 367Q148 347 159 334T190 312T255 287Q322 262 357 230T393 138Q393 71 345 31T200 -10Q109 -10 31 29Z" />
<glyph unicode="t" glyph-name="t" horiz-adv-x="341" d="M159 -10T126 27T92 116V406H17L27 496H92V610L204 622V496H321V406H204V168Q204 124 209 108T230 86T290 81H320L310 -10H224Q159 -10 126 27Z" />
<glyph unicode="u" glyph-name="u" horiz-adv-x="542" d="M483 496V0H380L375 38Q353 16 322 3T255 -10Q152 -10 103 50T54 222V496H166V231Q166 157 190 121T270 85Q335 85 371 132V496H483Z" />
<glyph unicode="v" glyph-name="v" horiz-adv-x="495" d="M5 496H119L247 134L375 496H489L300 0H195L5 496Z" />
<glyph unicode="w" glyph-name="w" horiz-adv-x="726" d="M11 496H126L215 132L313 485H413L510 132L600 496H715L569 0H466L363 339L260 0H157L11 496Z" />
<glyph unicode="x" glyph-name="x" horiz-adv-x="485" d="M178 248L12 496H143L245 334L340 496H472L308 251L474 0H344L241 162L141 0H10L178 248Z" />
<glyph unicode="y" glyph-name="y" horiz-adv-x="525" d="M210 29L3 496H127L264 159L397 496H522L213 -242H98L210 29Z" />
<glyph unicode="z" glyph-name="z" horiz-adv-x="472" d="M198 96H451V0H19L273 401H40V496H452L198 96Z" />
<glyph unicode="{" glyph-name="braceleft" horiz-adv-x="327" d="M241 656T216 635T190 564Q190 541 194 491Q198 441 198 420Q198 375 179 349T124 307Q160 293 179 266T198 194Q198 173 194 123Q190 73 190 50Q190 1 215 -20T292 -42H319V-136H282Q191 -136
147 -94T102 20Q102 39 106 89Q110 139 110 164Q110 220 92 245T26 271V343Q73 343 91 368T110 450Q110 475 106 525Q102 575 102 594Q102 666 146 708T282 750H319V656H292Q241 656 216 635Z" />
<glyph unicode="|" glyph-name="bar" horiz-adv-x="226" d="M57 750H169V-210H57V750Z" />
<glyph unicode="}" glyph-name="braceright" horiz-adv-x="327" d="M217 394T235 369T301 343V271Q254 271 236 246T217 164Q217 139 221 89Q225 39 225 20Q225 -52 181 -94T45 -136H8V-42H35Q86 -42 111 -21T137 50Q137 73 133 123Q129 173 129 194Q129 239 147
266T202 307Q166 321 148 348T129 420Q129 441 133 491Q137 541 137 564Q137 613 112 634T35 656H8V750H45Q136 750 180 708T225 594Q225 575 221 525Q217 475 217 450Q217 394 235 369Z" />
<glyph unicode="~" glyph-name="asciitilde" horiz-adv-x="464" d="M297 291T279 297T236 316Q210 328 196 333T164 338Q146 338 136 327T125 297H42Q44 360 70 393T146 427Q168 427 185 421T233 401Q255 390 270 385T300 379Q318 379 328 390T339 421H422Q420
358 393 325T318 291Q297 291 279 297Z" />
<glyph unicode="&#xa0;" glyph-name="uni00A0" horiz-adv-x="225" />
<glyph unicode="&#xa1;" glyph-name="exclamdown" horiz-adv-x="234" d="M185 500V375H63V500H185ZM171 306V278L186 -200H62L76 278V306H171Z" />
<glyph unicode="&#xa2;" glyph-name="cent" horiz-adv-x="455" d="M385 -3T318 -9L326 -144H235L243 -7Q141 7 86 76T30 246Q30 348 84 418T243 503L235 636H326L318 505Q378 501 428 475L416 383Q358 411 301 411Q226 411 185 367T144 248Q144 174 185 129T299
84Q361 84 417 116L429 23Q385 -3 318 -9Z" />
<glyph unicode="&#xa3;" glyph-name="sterling" horiz-adv-x="520" d="M492 109V0H49Q80 85 96 153T123 313H47V396H132L142 486Q166 714 357 714Q425 714 487 679L477 559Q446 582 420 593T364 605Q317 605 290 576T258 494L248 396H430V313H239Q230 242 221
196T194 109H492Z" />
<glyph unicode="&#xa4;" glyph-name="currency" horiz-adv-x="725" d="M626 301T612 260T571 185L672 84L625 38L524 140Q456 91 363 91Q269 91 201 140L100 38L54 84L154 184Q127 217 113 259T99 348Q99 442 154 511L54 612L100 658L201 556Q271 605 363 605Q454
605 524 556L625 658L672 612L571 511Q626 442 626 348Q626 301 612 260ZM434 192T473 235T513 348Q513 418 474 461T363 504Q292 504 253 461T213 348Q213 278 252 235T363 192Q434 192 473 235Z" />
<glyph unicode="&#xa5;" glyph-name="yen" horiz-adv-x="591" d="M392 355H498V272H353V215H498V132H353V0H237V132H92V215H237V272H92V355H198L-9 700H119L295 397L471 700H599L392 355Z" />
<glyph unicode="&#xa6;" glyph-name="brokenbar" horiz-adv-x="227" d="M58 750H169V342H58V750ZM58 198H169V-210H58V198Z" />
<glyph unicode="&#xa7;" glyph-name="section" horiz-adv-x="459" d="M168 -85T130 -73T64 -44L74 45Q105 25 142 12T211 -1Q251 -1 274 16T299 66Q299 100 273 120T191 163Q142 184 112 202T60 252T38 331Q38 425 132 479Q109 496 95 526T81 595Q81 663 125 706T251
750Q291 750 330 738T395 709L385 620Q353 640 316 653T247 667Q211 667 187 651T163 607Q163 576 187 557T264 513Q314 489 345 470T398 416T420 332Q420 289 398 251T328 187Q377 150 377 77Q377 12 337 -36T207 -85Q168 -85 130 -73ZM303 239T318 262T334 316Q334
355 299 382T189 441Q123 412 123 350Q123 307 159 281T278 227Q303 239 318 262Z" />
<glyph unicode="&#xa8;" glyph-name="dieresis" horiz-adv-x="491" d="M100 677H192V591H100V677ZM298 677H390V591H298V677Z" />
<glyph unicode="&#xa9;" glyph-name="copyright" horiz-adv-x="708" d="M265 36T194 77T83 193T43 365Q43 462 83 536T193 652T354 693Q444 693 514 652T625 537T665 365Q665 268 625 193T515 77T354 36Q265 36 194 77ZM433 97T487 131T569 226T596 365Q596 484
534 558T354 632Q236 632 174 558T111 365Q111 287 138 227T220 132T354 97Q433 97 487 131ZM292 193T247 240T201 363Q201 440 246 487T363 534Q413 534 460 513L451 437Q425 448 405 453T363 459Q325 459 304 433T283 363Q283 320 304 294T363 267Q401 267 451
291L460 216Q440 205 414 199T363 193Q292 193 247 240Z" />
<glyph unicode="&#xaa;" glyph-name="ordfeminine" horiz-adv-x="357" d="M81 434T56 456T31 518Q31 569 78 594T193 626Q193 638 184 645T149 652Q108 652 62 636L56 709Q119 729 172 729Q226 729 256 702T287 625V541Q287 521 291 516T307 510H321L316 434H275Q227
434 208 466Q193 451 169 443T121 434Q81 434 56 456ZM177 500T194 511V566Q130 559 130 525Q130 513 137 507T157 500Q177 500 194 511Z" />
<glyph unicode="&#xab;" glyph-name="guillemotleft" horiz-adv-x="598" d="M12 284L167 490H300L145 284L300 78H167L12 284ZM272 284L427 490H560L405 284L560 78H427L272 284Z" />
<glyph unicode="&#xac;" glyph-name="logicalnot" horiz-adv-x="514" d="M378 319H42V406H472V151H378V319Z" />
<glyph unicode="&#xad;" glyph-name="uni00AD" horiz-adv-x="444" d="M67 357H377V265H67V357Z" />
<glyph unicode="&#xae;" glyph-name="registered" horiz-adv-x="708" d="M264 37T194 78T83 193T43 365Q43 462 83 536T193 652T354 693Q444 693 514 652T625 537T665 365Q665 268 625 194T515 78T354 37Q264 37 194 78ZM433 97T487 131T569 226T596 365Q596 484
534 558T354 632Q275 632 221 598T139 503T111 365Q111 288 138 227T220 132T354 97Q433 97 487 131ZM232 535H356Q411 535 441 509T471 430Q471 401 458 379T422 342L495 206H412L353 319H310V206H232V535ZM349 391Q370 391 380 402T390 431Q390 470 349 470H310V391H349Z"
/>
<glyph unicode="&#xaf;" glyph-name="overscore" horiz-adv-x="525" d="M100 668H426V591H100V668Z" />
<glyph unicode="&#xb0;" glyph-name="degree" horiz-adv-x="290" d="M82 482T46 521T9 618Q9 676 45 715T144 755Q207 755 244 716T281 618Q281 560 244 521T144 482Q82 482 46 521ZM180 535T199 558T219 618Q219 654 200 678T144 702Q110 702 90 678T69 618Q69
582 89 559T144 535Q180 535 199 558Z" />
<glyph unicode="&#xb1;" glyph-name="plusminus" horiz-adv-x="454" d="M183 314H46V397H183V530H271V397H409V314H271V182H183V314ZM46 135H409V52H46V135Z" />
<glyph unicode="&#xb2;" glyph-name="uni00B2" horiz-adv-x="328" d="M298 466V386H33L144 544Q168 578 176 598T185 640Q185 662 172 676T133 690Q108 690 86 679T40 647L33 734Q91 772 154 772Q210 772 245 740T280 656Q280 622 268 592T221 513L188 466H298Z" />
<glyph unicode="&#xb3;" glyph-name="uni00B3" horiz-adv-x="339" d="M267 569T284 545T301 487Q301 434 263 403T163 372Q91 372 32 404L51 484Q78 468 100 460T148 451Q175 451 191 462T207 493Q207 516 192 528T145 541H115V614H146Q169 614 182 624T196 654Q196
671 184 682T147 693Q103 693 61 662L54 745Q105 772 169 772Q224 772 256 744T289 670Q289 609 237 581Q267 569 284 545Z" />
<glyph unicode="&#xb4;" glyph-name="acute" horiz-adv-x="473" d="M140 645L333 756V647L140 572V645Z" />
<glyph unicode="&#xb5;" glyph-name="uni00B5" horiz-adv-x="608" d="M72 496H183V211Q183 148 208 117T289 85Q352 85 392 133V496H503V171Q503 134 506 115T519 89T548 81H566L553 -10H515Q437 -10 408 50Q354 -9 279 -9Q221 -9 183 16V-242H72V496Z" />
<glyph unicode="&#xb6;" glyph-name="paragraph" horiz-adv-x="624" d="M300 234Q214 239 154 273T63 359T33 469Q33 528 65 581T163 667T320 700H580V608H509V0H435V608H359V0H300V234Z" />
<glyph unicode="&#xb7;" glyph-name="middot" horiz-adv-x="234" d="M55 343H179V213H55V343Z" />
<glyph unicode="&#xb8;" glyph-name="cedilla" horiz-adv-x="391" d="M242 -54T266 -76T291 -139Q291 -185 260 -209T180 -234Q134 -234 100 -215L117 -160Q153 -177 181 -177Q203 -177 216 -168T229 -142Q229 -124 216 -115T178 -105Q154 -105 131 -113L158 0H211L195
-54H199Q242 -54 266 -76Z" />
<glyph unicode="&#xb9;" glyph-name="uni00B9" horiz-adv-x="245" d="M102 656Q71 631 39 623L33 698Q58 706 83 723T122 758H190V386H102V656Z" />
<glyph unicode="&#xba;" glyph-name="ordmasculine" horiz-adv-x="374" d="M139 434T104 454T49 509T30 582Q30 621 49 654T103 708T187 729Q235 729 270 709T325 655T344 582Q344 543 325 509T271 455T187 434Q139 434 104 454ZM215 505T232 527T249 582Q249
615 232 637T187 659Q159 659 142 637T125 582Q125 549 142 527T187 505Q215 505 232 527Z" />
<glyph unicode="&#xbb;" glyph-name="guillemotright" horiz-adv-x="598" d="M453 284L298 490H432L586 284L432 78H298L453 284ZM193 284L38 490H172L326 284L172 78H38L193 284Z" />
<glyph unicode="&#xbc;" glyph-name="onequarter" horiz-adv-x="672" d="M355 598Q324 573 292 565L286 640Q311 648 336 665T375 700H443V328H355V598ZM482 700H575L167 0H72L482 700ZM634 147V80H585V0H507V80H305L514 372H585V147H634ZM507 252L433 147H507V252Z" />
<glyph unicode="&#xbd;" glyph-name="onehalf" horiz-adv-x="711" d="M355 598Q324 573 292 565L286 640Q311 648 336 665T375 700H443V328H355V598ZM472 700H565L157 0H62L472 700ZM681 80V0H416L527 158Q551 192 559 212T568 254Q568 276 555 290T516 304Q491
304 469 293T423 261L416 348Q474 386 537 386Q593 386 628 354T663 270Q663 236 651 206T604 127L571 80H681Z" />
<glyph unicode="&#xbe;" glyph-name="threequarters" horiz-adv-x="735" d="M267 511T284 487T301 429Q301 376 263 345T163 314Q91 314 32 346L51 426Q78 410 100 402T148 393Q175 393 191 404T207 435Q207 458 192 470T145 483H115V556H146Q169 556 182 566T196
596Q196 613 184 624T147 635Q103 635 61 604L54 687Q105 714 169 714Q224 714 256 686T289 612Q289 551 237 523Q267 511 284 487ZM551 700H644L236 0H141L551 700ZM696 147V80H647V0H569V80H367L576 372H647V147H696ZM569 252L495 147H569V252Z" />
<glyph unicode="&#xbf;" glyph-name="questiondown" horiz-adv-x="421" d="M327 375H205V500H327V375ZM325 290Q325 236 305 199T243 117Q199 70 182 44T165 -19Q165 -59 192 -81T262 -104Q299 -104 332 -94T401 -66L413 -171Q373 -192 331 -203T235 -214Q174
-214 130 -191T62 -127T38 -37Q38 13 60 51T130 139Q169 182 188 213T207 284V306H325V290Z" />
<glyph unicode="&#xc0;" glyph-name="Agrave" horiz-adv-x="622" d="M441 174H181L120 0H4L254 700H368L617 0H502L441 174ZM404 277L311 543L217 277H404ZM214 819V921L407 826V761L214 819Z" />
<glyph unicode="&#xc1;" glyph-name="Aacute" horiz-adv-x="622" d="M441 174H181L120 0H4L254 700H368L617 0H502L441 174ZM404 277L311 543L217 277H404ZM215 826L408 921V819L215 761V826Z" />
<glyph unicode="&#xc2;" glyph-name="Acircumflex" horiz-adv-x="622" d="M441 174H181L120 0H4L254 700H368L617 0H502L441 174ZM404 277L311 543L217 277H404ZM181 818L311 909L441 818V748L311 818L181 748V818Z" />
<glyph unicode="&#xc3;" glyph-name="Atilde" horiz-adv-x="622" d="M441 174H181L120 0H4L254 700H368L617 0H502L441 174ZM404 277L311 543L217 277H404ZM381 781T365 786T320 804Q315 806 294 814T257 823Q241 823 232 814T223 788H151Q151 838 169 864T225
891Q241 891 257 886T302 868Q307 866 328 858T365 849Q381 849 390 858T399 885H471Q471 834 453 808T397 781Q381 781 365 786Z" />
<glyph unicode="&#xc4;" glyph-name="Adieresis" horiz-adv-x="622" d="M441 174H181L120 0H4L254 700H368L617 0H502L441 174ZM404 277L311 543L217 277H404ZM166 869H258V787H166V869ZM364 869H456V787H364V869Z" />
<glyph unicode="&#xc5;" glyph-name="Aring" horiz-adv-x="622" d="M441 174H181L120 0H4L254 700H368L617 0H502L441 174ZM404 277L311 543L217 277H404ZM263 755T235 783T206 852Q206 893 234 921T311 950Q359 950 387 922T416 852Q416 811 388 783T311 755Q263
755 235 783ZM332 804T346 817T360 852Q360 873 346 887T311 901Q290 901 276 887T262 852Q262 831 276 818T311 804Q332 804 346 817Z" />
<glyph unicode="&#xc6;" glyph-name="AE" horiz-adv-x="866" d="M831 110V0H395V173H193L109 0H-10L332 700H822V589H520V420H753V310H520V110H831ZM395 285V587L248 285H395Z" />
<glyph unicode="&#xc7;" glyph-name="Ccedilla" horiz-adv-x="612" d="M499 -13T402 -14L390 -54H394Q437 -54 461 -76T486 -139Q486 -185 455 -209T375 -234Q329 -234 295 -215L312 -160Q348 -177 376 -177Q398 -177 411 -168T424 -142Q424 -124 411 -115T373
-105Q349 -105 326 -113L350 -12Q257 -3 186 44T76 170T36 350Q36 459 82 541T211 669T397 714Q449 714 496 703T580 673L568 563Q481 604 396 604Q322 604 270 572T190 482T163 350Q163 276 189 219T268 129T394 96Q441 96 482 106T568 136L580 27Q499 -13 402
-14Z" />
<glyph unicode="&#xc8;" glyph-name="Egrave" horiz-adv-x="563" d="M78 700H518V590H196V420H449V310H196V110H528V0H78V700ZM211 819V921L404 826V761L211 819Z" />
<glyph unicode="&#xc9;" glyph-name="Eacute" horiz-adv-x="563" d="M78 700H518V590H196V420H449V310H196V110H528V0H78V700ZM212 826L405 921V819L212 761V826Z" />
<glyph unicode="&#xca;" glyph-name="Ecircumflex" horiz-adv-x="563" d="M78 700H518V590H196V420H449V310H196V110H528V0H78V700ZM178 818L308 909L438 818V748L308 818L178 748V818Z" />
<glyph unicode="&#xcb;" glyph-name="Edieresis" horiz-adv-x="563" d="M78 700H518V590H196V420H449V310H196V110H528V0H78V700ZM163 869H255V787H163V869ZM361 869H453V787H361V869Z" />
<glyph unicode="&#xcc;" glyph-name="Igrave" horiz-adv-x="272" d="M78 700H194V0H78V700ZM39 819V921L232 826V761L39 819Z" />
<glyph unicode="&#xcd;" glyph-name="Iacute" horiz-adv-x="272" d="M78 700H194V0H78V700ZM40 826L233 921V819L40 761V826Z" />
<glyph unicode="&#xce;" glyph-name="Icircumflex" horiz-adv-x="272" d="M78 700H194V0H78V700ZM6 818L136 909L266 818V748L136 818L6 748V818Z" />
<glyph unicode="&#xcf;" glyph-name="Idieresis" horiz-adv-x="272" d="M78 700H194V0H78V700ZM-9 869H83V787H-9V869ZM189 869H281V787H189V869Z" />
<glyph unicode="&#xd0;" glyph-name="Eth" horiz-adv-x="730" d="M88 310H21V401H88V700H348Q448 700 526 658T649 537T693 350Q693 242 649 163T527 42T348 0H88V310ZM348 110Q455 110 511 174T567 350Q567 462 511 526T348 590H202V401H328V310H202V110H348Z" />
<glyph unicode="&#xd1;" glyph-name="Ntilde" horiz-adv-x="706" d="M78 700H196L511 222V700H628V0H532L194 507V0H78V700ZM424 781T408 786T363 804Q358 806 337 814T300 823Q284 823 275 814T266 788H194Q194 838 212 864T268 891Q284 891 300 886T345 868Q350
866 371 858T408 849Q424 849 433 858T442 885H514Q514 834 496 808T440 781Q424 781 408 786Z" />
<glyph unicode="&#xd2;" glyph-name="Ograve" horiz-adv-x="764" d="M282 -14T204 31T82 158T37 350Q37 459 81 541T204 669T382 714Q482 714 560 669T682 542T727 350Q727 241 683 159T560 31T382 -14Q282 -14 204 31ZM489 98T546 168T604 350Q604 462 547 532T382
602Q275 602 217 532T159 350Q159 238 217 168T382 98Q489 98 546 168ZM285 819V921L478 826V761L285 819Z" />
<glyph unicode="&#xd3;" glyph-name="Oacute" horiz-adv-x="764" d="M282 -14T204 31T82 158T37 350Q37 459 81 541T204 669T382 714Q482 714 560 669T682 542T727 350Q727 241 683 159T560 31T382 -14Q282 -14 204 31ZM489 98T546 168T604 350Q604 462 547 532T382
602Q275 602 217 532T159 350Q159 238 217 168T382 98Q489 98 546 168ZM286 826L479 921V819L286 761V826Z" />
<glyph unicode="&#xd4;" glyph-name="Ocircumflex" horiz-adv-x="764" d="M282 -14T204 31T82 158T37 350Q37 459 81 541T204 669T382 714Q482 714 560 669T682 542T727 350Q727 241 683 159T560 31T382 -14Q282 -14 204 31ZM489 98T546 168T604 350Q604 462 547
532T382 602Q275 602 217 532T159 350Q159 238 217 168T382 98Q489 98 546 168ZM252 818L382 909L512 818V748L382 818L252 748V818Z" />
<glyph unicode="&#xd5;" glyph-name="Otilde" horiz-adv-x="764" d="M282 -14T204 31T82 158T37 350Q37 459 81 541T204 669T382 714Q482 714 560 669T682 542T727 350Q727 241 683 159T560 31T382 -14Q282 -14 204 31ZM489 98T546 168T604 350Q604 462 547 532T382
602Q275 602 217 532T159 350Q159 238 217 168T382 98Q489 98 546 168ZM452 781T436 786T391 804Q386 806 365 814T328 823Q312 823 303 814T294 788H222Q222 838 240 864T296 891Q312 891 328 886T373 868Q378 866 399 858T436 849Q452 849 461 858T470 885H542Q542
834 524 808T468 781Q452 781 436 786Z" />
<glyph unicode="&#xd6;" glyph-name="Odieresis" horiz-adv-x="764" d="M282 -14T204 31T82 158T37 350Q37 459 81 541T204 669T382 714Q482 714 560 669T682 542T727 350Q727 241 683 159T560 31T382 -14Q282 -14 204 31ZM489 98T546 168T604 350Q604 462 547
532T382 602Q275 602 217 532T159 350Q159 238 217 168T382 98Q489 98 546 168ZM237 869H329V787H237V869ZM435 869H527V787H435V869Z" />
<glyph unicode="&#xd7;" glyph-name="multiply" horiz-adv-x="424" d="M273 278L391 159L330 97L212 217L94 97L33 159L151 278L33 398L94 459L212 340L330 459L391 398L273 278Z" />
<glyph unicode="&#xd8;" glyph-name="Oslash" horiz-adv-x="764" d="M670 577T698 507T727 350Q727 241 683 159T560 31T382 -14Q285 -14 211 27L162 -44H64L145 75Q93 123 65 193T37 350Q37 459 81 541T204 669T382 714Q479 714 553 673L602 744H699L618 626Q670
577 698 507ZM159 241T212 173L489 578Q441 602 382 602Q275 602 217 532T159 350Q159 241 212 173ZM489 98T546 168T604 350Q604 459 551 527L275 122Q320 98 382 98Q489 98 546 168Z" />
<glyph unicode="&#xd9;" glyph-name="Ugrave" horiz-adv-x="720" d="M216 -14T143 69T70 299V700H186V329Q186 217 222 157T360 96Q461 96 497 156T534 329V700H650V299Q650 152 577 69T360 -14Q216 -14 143 69ZM263 819V921L456 826V761L263 819Z" />
<glyph unicode="&#xda;" glyph-name="Uacute" horiz-adv-x="720" d="M216 -14T143 69T70 299V700H186V329Q186 217 222 157T360 96Q461 96 497 156T534 329V700H650V299Q650 152 577 69T360 -14Q216 -14 143 69ZM264 826L457 921V819L264 761V826Z" />
<glyph unicode="&#xdb;" glyph-name="Ucircumflex" horiz-adv-x="720" d="M216 -14T143 69T70 299V700H186V329Q186 217 222 157T360 96Q461 96 497 156T534 329V700H650V299Q650 152 577 69T360 -14Q216 -14 143 69ZM230 818L360 909L490 818V748L360 818L230 748V818Z" />
<glyph unicode="&#xdc;" glyph-name="Udieresis" horiz-adv-x="720" d="M216 -14T143 69T70 299V700H186V329Q186 217 222 157T360 96Q461 96 497 156T534 329V700H650V299Q650 152 577 69T360 -14Q216 -14 143 69ZM215 869H307V787H215V869ZM413 869H505V787H413V869Z" />
<glyph unicode="&#xdd;" glyph-name="Yacute" horiz-adv-x="591" d="M599 700L353 290V0H237V290L-9 700H119L295 397L471 700H599ZM199 826L392 921V819L199 761V826Z" />
<glyph unicode="&#xde;" glyph-name="Thorn" horiz-adv-x="570" d="M78 700H196V551H331Q439 551 493 502T548 363Q548 273 494 224T331 174H196V0H78V700ZM319 273Q377 273 403 296T430 363Q430 409 404 430T319 452H196V273H319Z" />
<glyph unicode="&#xdf;" glyph-name="germandbls" horiz-adv-x="611" d="M310 -14T263 -3V87Q315 76 365 76Q416 76 445 98T475 159Q475 196 453 219T384 272Q339 300 317 323T294 383Q294 414 310 437T368 503Q396 531 407 549T418 594Q418 629 392 649T319 670Q260
670 230 636T199 539V0H89V406H17L27 496H89V537Q89 649 151 706T321 764Q415 764 472 722T529 607Q529 561 513 534T458 470Q429 441 419 426T408 393Q408 373 424 358T475 320Q511 297 533 279T572 231T589 162Q589 105 558 65T476 6T364 -14Q310 -14 263 -3Z"
/>
<glyph unicode="&#xe0;" glyph-name="agrave" horiz-adv-x="491" d="M105 -10T64 30T22 137Q22 202 68 241T178 296T307 315Q306 367 284 387T211 408Q179 408 148 399T77 368L65 459Q149 505 242 505Q332 505 376 456T420 292V169Q420 130 423 113T436 88T468
81H482L469 -10H438Q390 -10 364 6T321 53Q295 24 255 7T169 -10Q105 -10 64 30ZM234 77T261 89T308 124V239Q231 236 185 212T138 142Q138 77 209 77Q234 77 261 89ZM145 647V756L338 645V572L145 647Z" />
<glyph unicode="&#xe1;" glyph-name="aacute" horiz-adv-x="491" d="M105 -10T64 30T22 137Q22 202 68 241T178 296T307 315Q306 367 284 387T211 408Q179 408 148 399T77 368L65 459Q149 505 242 505Q332 505 376 456T420 292V169Q420 130 423 113T436 88T468
81H482L469 -10H438Q390 -10 364 6T321 53Q295 24 255 7T169 -10Q105 -10 64 30ZM234 77T261 89T308 124V239Q231 236 185 212T138 142Q138 77 209 77Q234 77 261 89ZM146 645L339 756V647L146 572V645Z" />
<glyph unicode="&#xe2;" glyph-name="acircumflex" horiz-adv-x="491" d="M105 -10T64 30T22 137Q22 202 68 241T178 296T307 315Q306 367 284 387T211 408Q179 408 148 399T77 368L65 459Q149 505 242 505Q332 505 376 456T420 292V169Q420 130 423 113T436 88T468
81H482L469 -10H438Q390 -10 364 6T321 53Q295 24 255 7T169 -10Q105 -10 64 30ZM234 77T261 89T308 124V239Q231 236 185 212T138 142Q138 77 209 77Q234 77 261 89ZM112 630L242 741L372 630V558L242 640L112 558V630Z" />
<glyph unicode="&#xe3;" glyph-name="atilde" horiz-adv-x="491" d="M105 -10T64 30T22 137Q22 202 68 241T178 296T307 315Q306 367 284 387T211 408Q179 408 148 399T77 368L65 459Q149 505 242 505Q332 505 376 456T420 292V169Q420 130 423 113T436 88T468
81H482L469 -10H438Q390 -10 364 6T321 53Q295 24 255 7T169 -10Q105 -10 64 30ZM234 77T261 89T308 124V239Q231 236 185 212T138 142Q138 77 209 77Q234 77 261 89ZM308 579T291 585T251 603Q230 613 216 618T188 624Q172 624 163 614T154 587H73Q75 644 97 674T159
704Q176 704 193 698T233 680Q254 670 268 665T296 659Q312 659 321 669T330 696H411Q409 639 387 609T325 579Q308 579 291 585Z" />
<glyph unicode="&#xe4;" glyph-name="adieresis" horiz-adv-x="491" d="M105 -10T64 30T22 137Q22 202 68 241T178 296T307 315Q306 367 284 387T211 408Q179 408 148 399T77 368L65 459Q149 505 242 505Q332 505 376 456T420 292V169Q420 130 423 113T436 88T468
81H482L469 -10H438Q390 -10 364 6T321 53Q295 24 255 7T169 -10Q105 -10 64 30ZM234 77T261 89T308 124V239Q231 236 185 212T138 142Q138 77 209 77Q234 77 261 89ZM97 677H189V591H97V677ZM295 677H387V591H295V677Z" />
<glyph unicode="&#xe5;" glyph-name="aring" horiz-adv-x="491" d="M105 -10T64 30T22 137Q22 202 68 241T178 296T307 315Q306 367 284 387T211 408Q179 408 148 399T77 368L65 459Q149 505 242 505Q332 505 376 456T420 292V169Q420 130 423 113T436 88T468
81H482L469 -10H438Q390 -10 364 6T321 53Q295 24 255 7T169 -10Q105 -10 64 30ZM234 77T261 89T308 124V239Q231 236 185 212T138 142Q138 77 209 77Q234 77 261 89ZM194 569T166 597T138 667Q138 708 166 737T242 766Q290 766 318 738T346 667Q346 626 318 598T242
569Q194 569 166 597ZM262 618T276 631T290 667Q290 689 277 702T242 716Q221 716 208 703T194 667Q194 645 208 632T242 618Q262 618 276 631Z" />
<glyph unicode="&#xe6;" glyph-name="ae" horiz-adv-x="782" d="M754 260T747 231H427Q435 156 477 120T581 84Q650 84 724 121L732 28Q658 -10 573 -10Q505 -10 454 13T368 78Q334 38 286 14T185 -10Q112 -10 67 28T22 131Q22 223 107 264T310 307Q307 358 285
383T211 408Q179 408 148 399T77 368L65 459Q149 505 242 505Q345 505 386 440Q451 505 549 505Q614 505 660 477T730 401T754 292Q754 260 747 231ZM640 307Q640 353 616 382T546 411Q500 411 470 384T430 307H640ZM249 77T279 91T335 132Q315 178 312 231Q138
228 138 141Q138 109 159 93T217 77Q249 77 279 91Z" />
<glyph unicode="&#xe7;" glyph-name="ccedilla" horiz-adv-x="455" d="M330 -54T354 -76T379 -139Q379 -185 348 -209T268 -234Q222 -234 188 -215L205 -160Q241 -177 269 -177Q291 -177 304 -168T317 -142Q317 -124 304 -115T266 -105Q242 -105 219 -113L244
-7Q142 6 86 76T30 246Q30 320 59 379T148 472T294 506Q369 506 428 475L416 383Q358 411 301 411Q226 411 185 367T144 248Q144 174 185 129T299 84Q361 84 417 116L429 23Q404 9 369 0T296 -10L283 -54H287Q330 -54 354 -76Z" />
<glyph unicode="&#xe8;" glyph-name="egrave" horiz-adv-x="514" d="M212 -10T152 25T60 119T29 252Q29 322 57 379T141 471T272 505Q338 505 386 478T460 402T486 292Q486 260 479 231H145Q154 154 198 119T309 84Q390 84 456 121L464 28Q388 -10 298 -10Q212
-10 152 25ZM372 307Q372 351 347 381T271 411Q174 411 149 307H372ZM183 647V756L376 645V572L183 647Z" />
<glyph unicode="&#xe9;" glyph-name="eacute" horiz-adv-x="514" d="M212 -10T152 25T60 119T29 252Q29 322 57 379T141 471T272 505Q338 505 386 478T460 402T486 292Q486 260 479 231H145Q154 154 198 119T309 84Q390 84 456 121L464 28Q388 -10 298 -10Q212
-10 152 25ZM372 307Q372 351 347 381T271 411Q174 411 149 307H372ZM184 645L377 756V647L184 572V645Z" />
<glyph unicode="&#xea;" glyph-name="ecircumflex" horiz-adv-x="514" d="M212 -10T152 25T60 119T29 252Q29 322 57 379T141 471T272 505Q338 505 386 478T460 402T486 292Q486 260 479 231H145Q154 154 198 119T309 84Q390 84 456 121L464 28Q388 -10 298 -10Q212
-10 152 25ZM372 307Q372 351 347 381T271 411Q174 411 149 307H372ZM150 630L280 741L410 630V558L280 640L150 558V630Z" />
<glyph unicode="&#xeb;" glyph-name="edieresis" horiz-adv-x="514" d="M212 -10T152 25T60 119T29 252Q29 322 57 379T141 471T272 505Q338 505 386 478T460 402T486 292Q486 260 479 231H145Q154 154 198 119T309 84Q390 84 456 121L464 28Q388 -10 298 -10Q212
-10 152 25ZM372 307Q372 351 347 381T271 411Q174 411 149 307H372ZM135 677H227V591H135V677ZM333 677H425V591H333V677Z" />
<glyph unicode="&#xec;" glyph-name="igrave" horiz-adv-x="230" d="M59 496H171V0H59V496ZM18 647V756L211 645V572L18 647Z" />
<glyph unicode="&#xed;" glyph-name="iacute" horiz-adv-x="230" d="M59 496H171V0H59V496ZM19 645L212 756V647L19 572V645Z" />
<glyph unicode="&#xee;" glyph-name="icircumflex" horiz-adv-x="230" d="M59 496H171V0H59V496ZM-15 630L115 741L245 630V558L115 640L-15 558V630Z" />
<glyph unicode="&#xef;" glyph-name="idieresis" horiz-adv-x="230" d="M59 496H171V0H59V496ZM-30 677H62V591H-30V677ZM168 677H260V591H168V677Z" />
<glyph unicode="&#xf0;" glyph-name="eth" horiz-adv-x="507" d="M410 535T443 448T476 258Q476 165 444 104T359 15T245 -13Q180 -13 129 15T49 94T20 205Q20 262 45 313T119 395T233 426Q307 426 356 381Q342 490 279 557L166 493L130 553L220 604Q180 629 130
642L148 701Q228 685 290 644L390 700L425 640L348 597Q410 535 443 448ZM300 82T331 117T363 207Q363 262 332 298T246 334Q191 334 160 298T129 207Q129 153 160 118T247 82Q300 82 331 117Z" />
<glyph unicode="&#xf1;" glyph-name="ntilde" horiz-adv-x="555" d="M404 505T452 444T500 276V0H389V269Q389 343 364 377T279 411Q209 411 171 362V0H59V496H158L162 455Q226 505 307 505Q404 505 452 444ZM359 573T342 579T302 597Q281 607 267 612T239 618Q223
618 214 608T205 581H124Q126 638 148 668T210 698Q227 698 244 692T284 674Q305 664 319 659T347 653Q363 653 372 663T381 690H462Q460 633 438 603T376 573Q359 573 342 579Z" />
<glyph unicode="&#xf2;" glyph-name="ograve" horiz-adv-x="563" d="M204 -10T147 24T60 118T29 248Q29 319 59 378T147 471T281 506Q359 506 416 472T503 378T533 248Q533 177 503 118T416 25T281 -10Q204 -10 147 24ZM346 84T382 128T419 248Q419 323 383 367T281
412Q216 412 180 368T144 248Q144 172 180 128T281 84Q346 84 382 128ZM184 647V756L377 645V572L184 647Z" />
<glyph unicode="&#xf3;" glyph-name="oacute" horiz-adv-x="563" d="M204 -10T147 24T60 118T29 248Q29 319 59 378T147 471T281 506Q359 506 416 472T503 378T533 248Q533 177 503 118T416 25T281 -10Q204 -10 147 24ZM346 84T382 128T419 248Q419 323 383 367T281
412Q216 412 180 368T144 248Q144 172 180 128T281 84Q346 84 382 128ZM185 645L378 756V647L185 572V645Z" />
<glyph unicode="&#xf4;" glyph-name="ocircumflex" horiz-adv-x="563" d="M204 -10T147 24T60 118T29 248Q29 319 59 378T147 471T281 506Q359 506 416 472T503 378T533 248Q533 177 503 118T416 25T281 -10Q204 -10 147 24ZM346 84T382 128T419 248Q419 323 383
367T281 412Q216 412 180 368T144 248Q144 172 180 128T281 84Q346 84 382 128ZM151 630L281 741L411 630V558L281 640L151 558V630Z" />
<glyph unicode="&#xf5;" glyph-name="otilde" horiz-adv-x="563" d="M204 -10T147 24T60 118T29 248Q29 319 59 378T147 471T281 506Q359 506 416 472T503 378T533 248Q533 177 503 118T416 25T281 -10Q204 -10 147 24ZM346 84T382 128T419 248Q419 323 383 367T281
412Q216 412 180 368T144 248Q144 172 180 128T281 84Q346 84 382 128ZM347 579T330 585T290 603Q269 613 255 618T227 624Q211 624 202 614T193 587H112Q114 644 136 674T198 704Q215 704 232 698T272 680Q293 670 307 665T335 659Q351 659 360 669T369 696H450Q448
639 426 609T364 579Q347 579 330 585Z" />
<glyph unicode="&#xf6;" glyph-name="odieresis" horiz-adv-x="563" d="M204 -10T147 24T60 118T29 248Q29 319 59 378T147 471T281 506Q359 506 416 472T503 378T533 248Q533 177 503 118T416 25T281 -10Q204 -10 147 24ZM346 84T382 128T419 248Q419 323 383
367T281 412Q216 412 180 368T144 248Q144 172 180 128T281 84Q346 84 382 128ZM136 677H228V591H136V677ZM334 677H426V591H334V677Z" />
<glyph unicode="&#xf7;" glyph-name="divide" horiz-adv-x="487" d="M186 507H301V391H186V507ZM42 322H445V235H42V322ZM186 166H301V49H186V166Z" />
<glyph unicode="&#xf8;" glyph-name="oslash" horiz-adv-x="563" d="M492 408T512 358T533 248Q533 177 503 118T416 25T281 -10Q221 -10 172 12L138 -40H54L112 50Q72 85 51 136T29 248Q29 319 59 378T147 471T281 506Q343 506 394 483L424 530H509L453 444Q492
408 512 358ZM144 182T171 140L340 400Q315 412 281 412Q216 412 180 368T144 248Q144 182 171 140ZM346 84T382 128T419 248Q419 311 393 352L225 94Q253 84 281 84Q346 84 382 128Z" />
<glyph unicode="&#xf9;" glyph-name="ugrave" horiz-adv-x="542" d="M483 496V0H380L375 38Q353 16 322 3T255 -10Q152 -10 103 50T54 222V496H166V231Q166 157 190 121T270 85Q335 85 371 132V496H483ZM174 647V756L367 645V572L174 647Z" />
<glyph unicode="&#xfa;" glyph-name="uacute" horiz-adv-x="542" d="M483 496V0H380L375 38Q353 16 322 3T255 -10Q152 -10 103 50T54 222V496H166V231Q166 157 190 121T270 85Q335 85 371 132V496H483ZM175 645L368 756V647L175 572V645Z" />
<glyph unicode="&#xfb;" glyph-name="ucircumflex" horiz-adv-x="542" d="M483 496V0H380L375 38Q353 16 322 3T255 -10Q152 -10 103 50T54 222V496H166V231Q166 157 190 121T270 85Q335 85 371 132V496H483ZM141 630L271 741L401 630V558L271 640L141 558V630Z" />
<glyph unicode="&#xfc;" glyph-name="udieresis" horiz-adv-x="542" d="M483 496V0H380L375 38Q353 16 322 3T255 -10Q152 -10 103 50T54 222V496H166V231Q166 157 190 121T270 85Q335 85 371 132V496H483ZM126 677H218V591H126V677ZM324 677H416V591H324V677Z" />
<glyph unicode="&#xfd;" glyph-name="yacute" horiz-adv-x="525" d="M210 29L3 496H127L264 159L397 496H522L213 -242H98L210 29ZM167 645L360 756V647L167 572V645Z" />
<glyph unicode="&#xfe;" glyph-name="thorn" horiz-adv-x="582" d="M392 505T444 471T524 378T552 248Q552 177 525 119T445 25T319 -10Q271 -10 236 3T170 43V-242H59V750H170V453Q202 479 237 492T319 505Q392 505 444 471ZM367 81T402 127T438 248Q438 322
403 366T304 411Q236 411 200 367T164 248Q164 171 200 126T304 81Q367 81 402 127Z" />
<glyph unicode="&#xff;" glyph-name="ydieresis" horiz-adv-x="525" d="M210 29L3 496H127L264 159L397 496H522L213 -242H98L210 29ZM118 677H210V591H118V677ZM316 677H408V591H316V677Z" />
<glyph unicode="&#x2013;" glyph-name="endash" horiz-adv-x="550" d="M0 357H550V265H0V357Z" />
<glyph unicode="&#x2014;" glyph-name="emdash" horiz-adv-x="734" d="M0 357H734V265H0V357Z" />
<glyph unicode="&#x2018;" glyph-name="quoteleft" horiz-adv-x="219" d="M173 700L132 585H178V460H56V574L115 700H173Z" />
<glyph unicode="&#x2019;" glyph-name="quoteright" horiz-adv-x="213" d="M46 460L87 575H41V700H163V586L104 460H46Z" />
<glyph unicode="&#x201a;" glyph-name="quotesinglbase" horiz-adv-x="213" d="M302 -115L343 0H297V125H419V11L360 -115H302Z" />
<glyph unicode="&#x201c;" glyph-name="quotedblleft" horiz-adv-x="398" d="M173 708L132 593H178V468H56V582L115 708H173ZM352 708L311 593H357V468H235V582L294 708H352Z" />
<glyph unicode="&#x201d;" glyph-name="quotedblright" horiz-adv-x="392" d="M46 460L87 575H41V700H163V586L104 460H46ZM225 460L266 575H220V700H342V586L283 460H225Z" />
<glyph unicode="&#x201e;" glyph-name="quotedblbase" horiz-adv-x="392" d="M302 -115L343 0H297V125H419V11L360 -115H302ZM225 -115L266 0H220V125H342V11L283 -115H225Z" />
<glyph unicode="&#x2022;" glyph-name="bullet" horiz-adv-x="301" d="M105 169T73 201T41 278Q41 323 73 355T150 387Q195 387 227 355T259 278Q259 233 227 201T150 169Q105 169 73 201Z" />
<glyph unicode="&#x2039;" glyph-name="guilsinglleft" horiz-adv-x="338" d="M12 284L167 490H300L145 284L300 78H167L12 284Z" />
<glyph unicode="&#x203a;" glyph-name="guilsinglright" horiz-adv-x="338" d="M193 284L38 490H172L326 284L172 78H38L193 284Z" />
</font>
</defs>
</svg>
