<?xml version="1.0" standalone="no"?>
<!DOCTYPE svg PUBLIC "-//W3C//DTD SVG 1.1//EN" "http://www.w3.org/Graphics/SVG/1.1/DTD/svg11.dtd">
<svg xmlns="http://www.w3.org/2000/svg">
<defs >
<font id="Cabin" horiz-adv-x="517" ><font-face
    font-family="Cabin SemiBold"
    units-per-em="1000"
    panose-1="0 0 7 0 0 0 0 0 0 0"
    ascent="965"
    descent="-250"
    alphabetic="0" />
<glyph unicode=" " glyph-name="space" horiz-adv-x="212" />
<glyph unicode="!" glyph-name="exclam" horiz-adv-x="203" d="M46 224L116 700H240L143 224L138 196H41L46 224ZM15 127H139L116 0H-7L15 127Z" />
<glyph unicode="&quot;" glyph-name="quotedbl" horiz-adv-x="324" d="M71 700H187L131 497H53L71 700ZM235 700H351L295 497H217L235 700Z" />
<glyph unicode="#" glyph-name="numbersign" horiz-adv-x="675" d="M129 213H19L79 313H185L238 416H124L171 510H289L392 700H480L379 510H487L589 700H677L575 510H680L631 416H524L470 313H588L526 213H415L296 -11H207L326 213H219L98 -11H11L129 213ZM381
313L436 416H328L272 313H381Z" />
<glyph unicode="$" glyph-name="dollar" horiz-adv-x="562" d="M263 603T224 580T185 511Q185 475 213 455T302 414Q366 391 403 372T468 316T495 219Q495 133 438 67T259 -11L243 -144H151L181 -13Q71 -9 -10 35L28 171Q64 139 112 119T221 98Q285 98 322 121T360
193Q360 238 330 262T226 313Q171 333 136 354T81 408T61 493Q61 551 92 602T184 683T328 714H330L345 844H437L405 708Q486 694 539 662L506 540Q454 573 412 588T319 603Q263 603 224 580Z" />
<glyph unicode="%" glyph-name="percent" horiz-adv-x="876" d="M358 314T322 355T286 466Q286 530 312 587T386 679T495 714Q560 714 597 675T634 567Q634 501 608 443T534 349T425 314Q358 314 322 355ZM470 396T492 421T526 483T538 557Q538 594 523 613T481
632Q433 632 408 582T382 470Q382 396 439 396Q470 396 492 421ZM649 700H743L210 0H115L649 700ZM549 -14T513 27T477 138Q477 202 503 259T577 351T686 386Q751 386 788 347T825 239Q825 173 799 115T725 21T616 -14Q549 -14 513 27ZM661 68T683 93T717 155T729
229Q729 266 714 285T672 304Q624 304 599 254T573 142Q573 68 630 68Q661 68 683 93Z" />
<glyph unicode="&amp;" glyph-name="ampersand" horiz-adv-x="591" d="M104 -24T57 20T10 137Q10 206 50 259T164 367Q121 449 121 513Q121 570 153 613T236 679T342 703Q404 703 437 673T470 588Q470 540 445 500T385 430T297 366L402 196Q420 241 441 352H551Q541
296 520 232T462 114L538 0H407L383 38Q309 -24 201 -24Q104 -24 57 20ZM298 454T319 472T353 514T367 564Q367 613 320 613Q284 613 259 588T233 517Q233 475 259 424Q298 454 319 472ZM293 63T338 105L207 304Q130 232 130 154Q130 114 153 89T229 63Q293 63
338 105Z" />
<glyph unicode="&apos;" glyph-name="quotesingle" horiz-adv-x="160" d="M71 700H187L131 497H53L71 700Z" />
<glyph unicode="(" glyph-name="parenleft" horiz-adv-x="309" d="M89 -68T71 1T52 154Q52 479 271 750H375Q273 618 218 461T163 145Q163 -1 219 -136H121Q89 -68 71 1Z" />
<glyph unicode=")" glyph-name="parenright" horiz-adv-x="309" d="M220 682T238 613T257 460Q257 135 38 -136H-66Q36 -4 91 153T146 469Q146 615 90 750H188Q220 682 238 613Z" />
<glyph unicode="*" glyph-name="asterisk" horiz-adv-x="420" d="M190 561L73 638L120 695L224 612L243 753H313L283 613L415 695L442 636L299 559L418 481L372 424L264 508L244 364H174L206 508L72 425L45 484L190 561Z" />
<glyph unicode="+" glyph-name="plus" horiz-adv-x="428" d="M136 234H7L23 322H152L175 456H271L247 322H376L360 234H231L208 100H112L136 234Z" />
<glyph unicode="," glyph-name="comma" horiz-adv-x="196" d="M-29 -116L33 0H-13L10 127H133L113 11L29 -116H-29Z" />
<glyph unicode="-" glyph-name="hyphen" horiz-adv-x="405" d="M62 357H354L337 265H45L62 357Z" />
<glyph unicode="." glyph-name="period" horiz-adv-x="196" d="M9 127H133L111 0H-13L9 127Z" />
<glyph unicode="/" glyph-name="slash" horiz-adv-x="363" d="M359 700H479L77 -85H-43L359 700Z" />
<glyph unicode="0" glyph-name="zero" horiz-adv-x="686" d="M160 -14T99 60T37 260Q37 377 82 481T209 650T397 714Q506 714 567 642T629 447Q629 330 584 224T456 52T269 -14Q160 -14 99 60ZM357 92T407 144T483 276T509 440Q509 523 474 566T378 609Q308 609
258 558T183 428T157 264Q157 178 191 135T287 92Q357 92 407 144Z" />
<glyph unicode="1" glyph-name="one" horiz-adv-x="349" d="M161 532Q108 499 60 489L65 591Q103 600 150 632T220 700H308L184 0H67L161 532Z" />
<glyph unicode="2" glyph-name="two" horiz-adv-x="510" d="M203 285Q282 382 310 429T339 522Q339 560 319 581T262 603Q216 603 173 581T79 517L86 637Q186 714 298 714Q378 714 419 671T460 556Q460 502 439 452T382 353T281 226L184 110H414L395 0H-30L203 285Z" />
<glyph unicode="3" glyph-name="three" horiz-adv-x="521" d="M382 351T408 311T435 211Q435 145 402 94T310 15T179 -14Q66 -14 -30 47L17 149Q99 89 183 89Q242 89 277 121T313 209Q313 258 283 283T193 309H138L157 418H211Q274 418 312 448T351 530Q351 568
327 589T259 611Q189 611 98 558L99 666Q188 714 290 714Q373 714 421 671T469 555Q469 493 433 444T334 372Q382 351 408 311Z" />
<glyph unicode="4" glyph-name="four" horiz-adv-x="582" d="M530 263L512 166H432L403 0H292L321 166H-24L446 700H527L450 263H530ZM339 263L378 488L181 263H339Z" />
<glyph unicode="5" glyph-name="five" horiz-adv-x="508" d="M235 586L189 438Q211 441 235 441Q328 441 382 389T436 245Q436 169 400 111T302 20T166 -13Q53 -13 -27 44L27 144Q64 119 98 106T173 93Q236 93 276 130T317 228Q317 283 284 313T186 343Q123 343
56 329L164 700H486L459 586H235Z" />
<glyph unicode="6" glyph-name="six" horiz-adv-x="568" d="M403 421T451 371T500 239Q500 168 466 111T371 20T237 -14Q142 -14 85 42T27 194Q27 297 84 399T235 583T433 714L499 637Q411 598 320 531T180 378Q241 421 323 421Q403 421 451 371ZM286 85T318 104T368
155T387 225Q387 267 360 294T289 322Q249 322 217 304T165 253T146 182Q146 139 174 112T246 85Q286 85 318 104Z" />
<glyph unicode="7" glyph-name="seven" horiz-adv-x="508" d="M548 700L143 0H19L358 589H85L105 700H548Z" />
<glyph unicode="8" glyph-name="eight" horiz-adv-x="590" d="M467 358T486 322T506 239Q506 167 470 109T371 19T234 -14Q138 -14 81 34T23 163Q23 235 61 293T164 382Q115 424 113 493Q113 556 145 606T232 685T354 714Q441 714 484 671T527 560Q527 503 502
457T431 381Q467 358 486 322ZM287 618T254 586T221 507Q222 473 244 451T306 429Q355 429 387 462T419 542Q419 578 399 598T339 618Q287 618 254 586ZM311 89T352 128T394 227Q394 272 366 298T287 325Q222 325 180 284T138 181Q138 138 166 114T245 89Q311 89
352 128Z" />
<glyph unicode="9" glyph-name="nine" horiz-adv-x="576" d="M419 714T476 658T534 506Q534 403 477 301T326 117T128 -14L62 63Q150 102 241 169T381 322Q320 279 238 279Q158 279 110 329T61 461Q61 532 95 589T190 680T324 714Q419 714 476 658ZM312 378T344
396T396 447T415 518Q415 561 387 588T315 615Q275 615 243 596T193 545T174 475Q174 433 201 406T272 378Q312 378 344 396Z" />
<glyph unicode=":" glyph-name="colon" horiz-adv-x="196" d="M73 497H197L175 370H51L73 497ZM9 127H133L111 0H-13L9 127Z" />
<glyph unicode=";" glyph-name="semicolon" horiz-adv-x="196" d="M-29 -116L33 0H-13L10 127H133L113 11L29 -116H-29ZM73 497H197L175 370H51L73 497Z" />
<glyph unicode="&lt;" glyph-name="less" horiz-adv-x="426" d="M29 327L404 488L387 386L115 276L347 165L331 69L11 229L29 327Z" />
<glyph unicode="=" glyph-name="equal" horiz-adv-x="447" d="M41 401H405L389 314H25L41 401ZM13 240H377L361 153H-3L13 240Z" />
<glyph unicode="&gt;" glyph-name="greater" horiz-adv-x="400" d="M345 230L-30 69L-13 171L259 281L27 392L43 488L363 328L345 230Z" />
<glyph unicode="?" glyph-name="question" horiz-adv-x="466" d="M106 211Q116 265 143 302T219 383Q258 419 276 438T308 481T322 535Q322 567 300 584T240 602Q203 602 168 592T94 564L100 671Q144 692 188 703T288 714Q368 714 412 674T456 570Q456 509 424
463T330 361Q285 322 260 290T227 217L224 196H104L106 211ZM90 127H213L191 0H67L90 127Z" />
<glyph unicode="@" glyph-name="at" horiz-adv-x="687" d="M125 -87T74 -33T22 116Q22 233 84 333T245 493T451 553Q545 553 596 499T647 351Q647 293 627 233T567 134T471 94Q454 94 446 101T437 128Q437 155 447 184T483 267Q516 337 532 379Q516 402 490 417T428
432Q365 432 296 385T181 266T135 125Q135 88 151 64T204 40Q248 40 301 71T394 156Q393 151 388 136T383 103Q383 78 393 60T426 42Q451 42 492 61T560 106Q499 19 406 -34T217 -87Q125 -87 74 -33ZM215 106T215 153Q215 208 250 258T336 340T425 371Q460 371
464 349Q446 296 406 239T322 144T247 106Q215 106 215 153Z" />
<glyph unicode="A" glyph-name="A" horiz-adv-x="595" d="M317 700H430L541 0H418L391 175H169L82 0H-41L317 700ZM371 288L341 519L229 288H371Z" />
<glyph unicode="B" glyph-name="B" horiz-adv-x="601" d="M150 700H342Q441 700 496 665T551 544Q551 488 525 444T454 373Q503 356 528 320T553 232Q553 159 517 107T418 27T279 0H27L150 700ZM320 416Q368 416 398 445T429 524Q429 563 410 580T351 598H250L218
416H320ZM276 102Q341 102 382 134T424 227Q424 272 398 296T321 320H201L162 102H276Z" />
<glyph unicode="C" glyph-name="C" horiz-adv-x="585" d="M232 -14T171 21T76 125T43 286Q43 407 97 505T242 658T442 714Q491 714 539 703T621 673L588 561Q545 580 507 591T426 602Q347 602 290 560T203 448T173 296Q173 203 213 151T339 98Q408 98 513 138L506
27Q467 8 415 -3T315 -14Q232 -14 171 21Z" />
<glyph unicode="D" glyph-name="D" horiz-adv-x="693" d="M150 700H396Q522 700 595 625T668 409Q668 290 615 197T472 52T273 0H27L150 700ZM293 112Q370 112 425 150T509 254T538 399Q538 491 498 539T377 588H248L164 112H293Z" />
<glyph unicode="E" glyph-name="E" horiz-adv-x="543" d="M150 700H571L551 588H251L222 422H454L435 309H202L167 112H476L456 0H27L150 700Z" />
<glyph unicode="F" glyph-name="F" horiz-adv-x="505" d="M150 700H556L536 588H248L219 422H441L421 309H199L145 0H27L150 700Z" />
<glyph unicode="G" glyph-name="G" horiz-adv-x="638" d="M232 -14T172 22T78 126T44 288Q44 408 97 505T242 658T442 714Q493 714 548 703T635 673L602 563Q566 580 518 591T428 602Q347 602 290 560T203 448T174 300Q174 205 217 152T345 98Q390 98 439 111L464
251H389L407 351H599L544 39Q505 17 438 2T313 -14Q232 -14 172 22Z" />
<glyph unicode="H" glyph-name="H" horiz-adv-x="709" d="M150 700H268L219 422H535L584 700H702L579 0H461L515 308H199L145 0H27L150 700Z" />
<glyph unicode="I" glyph-name="I" horiz-adv-x="275" d="M150 700H268L145 0H27L150 700Z" />
<glyph unicode="J" glyph-name="J" horiz-adv-x="275" d="M-66 -88H-43Q-13 -88 2 -67T27 2L150 700H268L140 -26Q127 -98 80 -135T-39 -172H-72L-66 -88Z" />
<glyph unicode="K" glyph-name="K" horiz-adv-x="588" d="M150 700H268L145 0H27L150 700ZM219 370L503 700H645L346 370L526 0H396L219 370Z" />
<glyph unicode="L" glyph-name="L" horiz-adv-x="483" d="M150 700H268L164 112H438L418 0H27L150 700Z" />
<glyph unicode="M" glyph-name="M" horiz-adv-x="792" d="M208 700H312L409 373L622 700H725L693 0H570L600 480L371 153L258 480L117 0H-6L208 700Z" />
<glyph unicode="N" glyph-name="N" horiz-adv-x="677" d="M150 700H267L469 226L552 700H670L546 0H450L234 502L145 0H27L150 700Z" />
<glyph unicode="O" glyph-name="O" horiz-adv-x="732" d="M232 -14T171 22T76 125T43 285Q43 405 96 503T240 658T436 714Q520 714 581 678T676 575T709 415Q709 295 656 197T512 42T316 -14Q232 -14 171 22ZM407 98T462 140T548 253T578 405Q578 497 538 549T417
602Q344 602 289 560T203 447T173 295Q173 203 213 151T334 98Q407 98 462 140Z" />
<glyph unicode="P" glyph-name="P" horiz-adv-x="572" d="M150 700H374Q477 700 531 650T585 507Q585 418 549 357T449 265T306 235H186L145 0H27L150 700ZM319 344Q385 344 423 383T462 496Q462 548 439 574T364 600H251L206 344H319Z" />
<glyph unicode="Q" glyph-name="Q" horiz-adv-x="732" d="M231 -14T170 22T76 126T43 286Q43 406 96 504T240 658T436 714Q520 714 581 678T676 575T709 419Q709 338 682 266T602 124L651 74L569 -6L514 50Q425 -14 313 -14Q231 -14 170 22ZM394 98T435 126L367
201L449 281L519 204Q547 253 563 300T579 407Q579 497 539 549T417 602Q344 602 289 560T203 447T173 295Q173 203 213 151T333 98Q394 98 435 126Z" />
<glyph unicode="R" glyph-name="R" horiz-adv-x="598" d="M150 700H370Q473 700 529 656T585 522Q585 441 542 385T431 295L529 0H406L315 264H191L145 0H27L150 700ZM317 375Q379 375 419 411T459 511Q459 556 436 579T359 602H251L211 375H317Z" />
<glyph unicode="S" glyph-name="S" horiz-adv-x="558" d="M155 -14T100 -1T5 35L43 171Q79 139 127 119T236 98Q300 98 337 121T375 193Q375 238 345 262T241 313Q186 333 151 354T96 408T76 493Q76 551 107 602T199 683T343 714Q408 714 463 699T554 662L521
540Q469 573 427 588T334 603Q278 603 239 580T200 511Q200 475 228 455T317 414Q381 391 418 372T483 316T510 219Q510 159 482 107T389 20T221 -14Q155 -14 100 -1Z" />
<glyph unicode="T" glyph-name="T" horiz-adv-x="552" d="M268 588H81L101 700H593L573 588H386L283 0H165L268 588Z" />
<glyph unicode="U" glyph-name="U" horiz-adv-x="687" d="M177 -14T121 44T64 210Q64 255 72 299L143 700H260L197 343Q187 287 187 240Q187 172 215 135T309 98Q398 98 442 163T508 343L571 700H689L618 299Q592 152 509 69T290 -14Q177 -14 121 44Z" />
<glyph unicode="V" glyph-name="V" horiz-adv-x="625" d="M72 700H195L285 139L564 700H686L329 0H187L72 700Z" />
<glyph unicode="W" glyph-name="W" horiz-adv-x="920" d="M89 700H212L251 177L489 696H579L639 187L858 700H981L664 0H558L499 499L263 0H151L89 700Z" />
<glyph unicode="X" glyph-name="X" horiz-adv-x="600" d="M244 359L87 700H224L329 440L520 700H655L378 355L544 0H408L292 266L89 0H-46L244 359Z" />
<glyph unicode="Y" glyph-name="Y" horiz-adv-x="586" d="M234 314L75 700H200L314 417L523 700H648L353 314L297 0H179L234 314Z" />
<glyph unicode="Z" glyph-name="Z" horiz-adv-x="525" d="M371 588H107L126 700H586L175 112H439L420 0H-40L371 588Z" />
<glyph unicode="[" glyph-name="bracketleft" horiz-adv-x="320" d="M149 750H391L374 653H236L114 -39H252L235 -136H-7L149 750Z" />
<glyph unicode="\" glyph-name="backslash" horiz-adv-x="340" d="M67 700H182L293 -85H178L67 700Z" />
<glyph unicode="]" glyph-name="bracketright" horiz-adv-x="326" d="M-51 -39H76L198 653H71L88 750H319L163 -136H-68L-51 -39Z" />
<glyph unicode="^" glyph-name="asciicircum" horiz-adv-x="447" d="M42 573L251 759L420 546L399 423L231 619L21 450L42 573Z" />
<glyph unicode="_" glyph-name="underscore" horiz-adv-x="525" d="M-54 -36H473L458 -128H-70L-54 -36Z" />
<glyph unicode="`" glyph-name="grave" horiz-adv-x="385" d="M110 646L130 756L295 645L282 572L110 646Z" />
<glyph unicode="a" glyph-name="a" horiz-adv-x="571" d="M115 -10T67 46T19 194Q19 274 53 345T150 461T293 506Q368 506 408 457L424 497H523L465 153Q461 132 461 115Q461 94 470 89T509 83L482 -10Q435 -10 411 -6T372 12T346 52Q315 23 280 7T197 -10Q115
-10 67 46ZM283 85T315 115T362 191T377 287Q377 347 354 378T284 410Q242 410 209 383T156 311T137 211Q137 153 161 119T236 85Q283 85 315 115Z" />
<glyph unicode="b" glyph-name="b" horiz-adv-x="548" d="M173 -10T126 61L110 0H8L140 750H255L202 452Q229 479 264 492T335 506Q420 506 466 447T513 295Q513 211 482 142T395 31T266 -10Q173 -10 126 61ZM294 85T326 111T377 184T395 284Q395 342 372 376T303
410Q259 410 225 383T173 310T155 207Q155 85 253 85Q294 85 326 111Z" />
<glyph unicode="c" glyph-name="c" horiz-adv-x="431" d="M115 -10T68 48T20 200Q20 281 53 351T152 463T307 506Q386 506 435 471L407 373Q357 410 306 410Q254 410 216 384T158 313T138 213Q138 152 165 119T249 85Q304 85 363 123L357 25Q296 -10 214 -10Q115
-10 68 48Z" />
<glyph unicode="d" glyph-name="d" horiz-adv-x="549" d="M569 750L437 0H330L338 56Q270 -10 193 -10Q111 -10 65 47T19 194Q19 274 51 345T141 461T275 506Q359 506 400 443L455 750H569ZM276 85T309 113T359 188T377 287Q377 345 354 377T284 410Q242 410 209
383T156 309T137 208Q137 151 160 118T232 85Q276 85 309 113Z" />
<glyph unicode="e" glyph-name="e" horiz-adv-x="479" d="M128 -10T74 49T19 204Q19 282 54 351T152 463T296 506Q372 506 413 469T454 367Q454 288 391 245T219 202Q169 202 139 209Q141 143 174 114T258 85Q334 85 408 123L397 28Q365 11 323 1T234 -10Q128
-10 74 49ZM285 277T321 301T357 359Q357 388 337 399T290 410Q239 410 202 373T149 283Q169 277 202 277Q285 277 321 301Z" />
<glyph unicode="f" glyph-name="f" horiz-adv-x="325" d="M106 405H38L65 497H122L143 617Q153 677 189 713T300 750Q323 750 384 742L356 647Q331 653 313 653Q290 653 279 646T262 620T248 563L236 497H342L326 405H220L149 0H35L106 405Z" />
<glyph unicode="g" glyph-name="g" horiz-adv-x="479" d="M86 -250T41 -232T-24 -184T-45 -120Q-45 -82 -20 -49T55 9Q40 20 32 35T23 68Q23 117 84 148Q60 171 48 205T36 277Q36 337 64 389T144 474T263 506Q329 506 367 474Q385 484 413 491T473 498H501L481
425H440Q428 425 411 422Q424 389 424 343Q424 284 396 232T316 147T197 114Q171 114 145 120Q131 110 131 97Q131 81 155 74T243 55Q314 44 361 18T409 -74Q409 -122 378 -162T289 -226T154 -250Q86 -250 41 -232ZM261 198T291 238T321 334Q321 420 248 420Q198
420 169 381T139 285Q139 243 157 221T211 198Q261 198 291 238ZM222 -167T263 -146T304 -92Q304 -62 270 -49T177 -27Q136 -20 133 -19Q99 -30 76 -51T53 -101Q53 -131 82 -149T163 -167Q222 -167 263 -146Z" />
<glyph unicode="h" glyph-name="h" horiz-adv-x="528" d="M140 750H254L202 450Q235 480 267 493T339 506Q405 506 440 464T476 356Q476 315 467 260L422 0H308L350 246Q361 305 361 335Q361 370 343 390T291 410Q261 410 237 398T186 361L122 0H8L140 750Z" />
<glyph unicode="i" glyph-name="i" horiz-adv-x="234" d="M131 700H246L225 583H111L131 700ZM95 497H209L122 0H8L95 497Z" />
<glyph unicode="j" glyph-name="j" horiz-adv-x="234" d="M132 700H246L225 583H111L132 700ZM-76 -150Q-48 -149 -36 -144T-17 -121T-3 -64L96 497H210L103 -110Q92 -170 56 -204T-40 -240L-82 -242L-76 -150Z" />
<glyph unicode="k" glyph-name="k" horiz-adv-x="464" d="M140 750H255L172 287L361 497H491L275 261L403 0H274L162 230L122 0H8L140 750Z" />
<glyph unicode="l" glyph-name="l" horiz-adv-x="255" d="M74 -10T49 16T24 85Q24 102 37 174L138 750H252L150 165Q143 127 143 117Q143 95 154 89T193 83L166 -10H125Q74 -10 49 16Z" />
<glyph unicode="m" glyph-name="m" horiz-adv-x="825" d="M95 497H188V454Q215 478 249 492T320 506Q363 506 398 486T450 423Q471 457 516 481T622 506Q698 506 736 464T775 347Q775 328 766 272T719 0H605Q636 174 647 244T659 329Q659 374 642 392T589 410Q535
410 508 379T473 301L421 0H307Q337 167 349 242T362 334Q362 410 285 410Q227 410 186 362L122 0H8L95 497Z" />
<glyph unicode="n" glyph-name="n" horiz-adv-x="530" d="M95 497H195L197 460Q228 483 259 494T329 506Q404 506 441 462T478 340Q478 322 469 262T424 0H309Q339 172 350 242T362 325Q362 369 344 389T287 410Q227 410 186 361L122 0H8L95 497Z" />
<glyph unicode="o" glyph-name="o" horiz-adv-x="538" d="M122 -10T70 50T18 203Q18 282 55 352T157 464T303 506Q400 506 452 446T504 293Q504 214 467 144T365 32T219 -10Q122 -10 70 50ZM278 85T313 112T367 184T386 284Q386 345 361 377T287 410Q243 410 209
384T155 312T136 212Q136 151 161 118T234 85Q278 85 313 112Z" />
<glyph unicode="p" glyph-name="p" horiz-adv-x="548" d="M95 497H194L193 445Q227 475 261 490T339 506Q421 506 467 448T513 296Q513 209 482 139T395 30T264 -10Q218 -10 185 8T131 58L79 -242H-35L95 497ZM296 85T327 111T377 184T395 286Q395 343 373 376T305
410Q262 410 228 384T174 310T154 205Q154 145 179 115T255 85Q296 85 327 111Z" />
<glyph unicode="q" glyph-name="q" horiz-adv-x="549" d="M330 45Q270 -10 197 -10Q111 -10 65 48T19 199Q19 278 52 349T145 463T282 506Q327 506 356 489T409 436L435 497H525L394 -242H280L330 45ZM300 85T339 142T378 289Q378 348 355 379T286 410Q243 410
209 383T156 311T137 212Q137 153 161 119T235 85Q300 85 339 142Z" />
<glyph unicode="r" glyph-name="r" horiz-adv-x="330" d="M95 497H201L194 435Q221 467 258 487T335 508H364L322 396H279Q251 396 224 381T183 343L122 0H8L95 497Z" />
<glyph unicode="s" glyph-name="s" horiz-adv-x="408" d="M62 -10T-12 29L16 129Q91 79 157 79Q197 79 217 95T237 140Q237 168 219 182T162 210Q104 229 74 255T44 337Q44 383 67 421T136 483T248 506Q330 506 389 470L363 376Q304 422 237 422Q198 422 175 407T152
361Q152 341 163 329T190 310T247 288Q299 269 326 240T353 157Q353 114 332 76T264 14T148 -10Q62 -10 -12 29Z" />
<glyph unicode="t" glyph-name="t" horiz-adv-x="327" d="M104 -10T79 18T53 91Q53 107 106 405H38L64 497H122L142 610L258 622L236 497H341L325 405H220Q193 252 183 190T172 117Q172 94 184 89T236 83H268L241 -10H158Q104 -10 79 18Z" />
<glyph unicode="u" glyph-name="u" horiz-adv-x="527" d="M113 -10T74 33T35 153Q35 181 42 219L90 497H204L158 230Q151 191 151 173Q151 87 227 87Q284 87 324 133L389 497H503L415 0H308L313 42Q284 17 255 4T188 -10Q113 -10 74 33Z" />
<glyph unicode="v" glyph-name="v" horiz-adv-x="469" d="M36 497H150L203 137L384 497H497L228 0H129L36 497Z" />
<glyph unicode="w" glyph-name="w" horiz-adv-x="691" d="M48 497H161L179 135L330 485H427L454 135L600 497H713L487 0H390L353 337L196 0H98L48 497Z" />
<glyph unicode="x" glyph-name="x" horiz-adv-x="468" d="M158 249L50 497H185L242 327L354 497H491L290 246L404 0H268L208 161L97 0H-38L158 249Z" />
<glyph unicode="y" glyph-name="y" horiz-adv-x="504" d="M147 30L33 497H160L224 162L406 497H533L109 -242H-6L147 30Z" />
<glyph unicode="z" glyph-name="z" horiz-adv-x="452" d="M258 399H51L69 497H465L179 98H385L367 0H-28L258 399Z" />
<glyph unicode="{" glyph-name="braceleft" horiz-adv-x="325" d="M395 750L378 653H351Q302 653 275 632T239 563Q236 540 232 484L226 421Q218 377 194 350T129 307Q183 281 183 222Q183 198 163 120Q145 48 145 27Q145 -8 166 -23T229 -39H256L239 -136H202Q124
-136 87 -104T50 -15Q50 3 54 27T63 67T69 91Q90 165 90 206Q90 239 74 254T21 270L33 344Q80 344 103 369T136 451Q140 483 142 522Q146 572 149 593Q162 666 214 708T358 750H395Z" />
<glyph unicode="|" glyph-name="bar" horiz-adv-x="230" d="M142 750H256L86 -210H-28L142 750Z" />
<glyph unicode="}" glyph-name="braceright" horiz-adv-x="325" d="M235 375T251 360T304 344L292 270Q245 270 222 245T189 163Q185 131 183 92Q179 42 176 21Q163 -52 111 -94T-33 -136H-70L-53 -39H-26Q23 -39 50 -18T86 51Q89 74 93 130L99 193Q107 237 131
264T196 307Q142 333 142 392Q142 416 162 494Q180 566 180 587Q180 622 159 637T96 653H69L86 750H123Q201 750 238 718T275 629Q275 611 271 587T262 547T256 523Q235 449 235 408Q235 375 251 360Z" />
<glyph unicode="~" glyph-name="asciitilde" horiz-adv-x="442" d="M283 291T266 297T225 316Q203 327 190 332T161 338Q142 338 130 327T113 297H32Q44 360 77 393T160 427Q182 427 200 420T242 400Q261 390 274 385T301 379Q319 379 329 390T343 423H424Q402
291 303 291Q283 291 266 297Z" />
<glyph unicode="&#xa0;" glyph-name="uni00A0" horiz-adv-x="212" />
<glyph unicode="&#xa1;" glyph-name="exclamdown" horiz-adv-x="202" d="M179 373H55L78 500H201L179 373ZM148 276L78 -200H-46L51 276L56 304H153L148 276Z" />
<glyph unicode="&#xa2;" glyph-name="cent" horiz-adv-x="455" d="M254 410T216 384T158 313T138 213Q138 152 165 119T249 85Q304 85 363 123L357 25Q309 -3 244 -9L228 -144H136L168 -6Q92 8 56 63T20 200Q20 273 47 337T128 446T257 502L273 636H365L334 505Q397
499 435 471L407 373Q357 410 306 410Q254 410 216 384Z" />
<glyph unicode="&#xa3;" glyph-name="sterling" horiz-adv-x="539" d="M305 603T274 493L247 397H419L404 313H223Q203 244 185 198T144 111H430L411 0H-23Q22 84 50 152T106 313H30L45 397H130L161 506Q191 611 250 662T407 714Q473 714 526 686L494 564Q467
583 444 593T394 603Q305 603 274 493Z" />
<glyph unicode="&#xa4;" glyph-name="currency" horiz-adv-x="642" d="M569 461T569 398Q569 336 546 280T481 182L563 82L510 38L428 139Q355 91 265 91Q180 91 122 136L8 40L-33 90L80 186Q52 234 52 298Q52 360 75 415T140 514L58 614L111 658L194 557Q269
605 356 605Q440 605 498 560L613 656L655 606L541 509Q569 461 569 398ZM169 257T198 225T283 193Q333 193 371 218T431 286T453 384Q453 438 424 470T338 503Q288 503 250 478T190 408T169 312Q169 257 198 225Z" />
<glyph unicode="&#xa5;" glyph-name="yen" horiz-adv-x="591" d="M340 355H454L439 271H301L291 215H429L414 131H276L253 0H135L158 131H21L36 215H173L182 271H46L61 355H173L31 700H156L270 417L479 700H604L340 355Z" />
<glyph unicode="&#xa6;" glyph-name="brokenbar" horiz-adv-x="228" d="M142 750H255L183 342H70L142 750ZM44 198H157L85 -210H-28L44 198Z" />
<glyph unicode="&#xa7;" glyph-name="section" horiz-adv-x="460" d="M266 665T239 647T212 597Q212 569 232 551T298 507Q338 484 363 466T407 417T425 343Q425 292 393 257T296 189Q337 148 337 88Q337 38 311 -1T240 -63T137 -85Q65 -85 0 -43L26 49Q54 28
89 15T157 1Q200 1 227 19T254 69Q254 102 230 123T157 173Q117 196 94 213T53 256T36 320Q36 370 71 410T171 479Q126 517 126 578Q126 627 152 666T225 728T328 750Q402 750 463 709L437 617Q371 665 305 665Q266 665 239 647ZM332 356T317 377T284 410T221 446Q178
430 154 403T129 343Q129 309 151 289T219 241Q243 228 247 225Q284 240 308 267T332 324Q332 356 317 377Z" />
<glyph unicode="&#xa8;" glyph-name="dieresis" horiz-adv-x="402" d="M90 678H181L164 591H73L90 678ZM284 678H375L358 591H267L284 678Z" />
<glyph unicode="&#xa9;" glyph-name="copyright" horiz-adv-x="687" d="M225 37T171 70T87 163T57 304Q57 415 105 504T235 643T414 693Q487 693 541 660T625 567T655 427Q655 316 607 227T477 87T298 37Q225 37 171 70ZM395 98T457 142T551 261T584 423Q584 517
539 574T403 631Q317 631 255 587T160 469T127 306Q127 212 173 155T310 98Q395 98 457 142ZM275 192T241 230T206 331Q206 389 231 435T299 508T394 535Q441 535 485 513L462 436Q417 457 380 457Q340 457 316 424T291 340Q291 307 305 288T347 269Q386 269 437
292L433 216Q411 205 385 199T333 192Q275 192 241 230Z" />
<glyph unicode="&#xaa;" glyph-name="ordfeminine" horiz-adv-x="313" d="M96 434T75 453T53 506Q53 560 104 589T232 626Q233 628 233 631Q233 641 224 646T193 652Q153 652 105 636L113 710Q178 730 230 730Q278 730 304 709T330 647Q330 639 328 625L313 543L311
525Q311 518 314 515T327 512H330L312 434H279Q226 434 219 466Q204 451 180 443T132 434Q96 434 75 453ZM222 565Q156 557 156 520Q156 500 179 500Q196 500 213 512L222 565Z" />
<glyph unicode="&#xab;" glyph-name="guillemotleft" horiz-adv-x="576" d="M14 284L193 490H328L149 284L255 78H120L14 284ZM259 284L438 490H573L394 284L500 78H365L259 284Z" />
<glyph unicode="&#xac;" glyph-name="logicalnot" horiz-adv-x="505" d="M357 317H30L45 406H468L424 151H329L357 317Z" />
<glyph unicode="&#xad;" glyph-name="uni00AD" horiz-adv-x="425" d="M72 357H364L347 265H55L72 357Z" />
<glyph unicode="&#xae;" glyph-name="registered" horiz-adv-x="687" d="M225 37T171 70T87 163T57 304Q57 415 105 504T235 643T414 693Q487 693 541 660T625 567T655 427Q655 316 607 227T477 87T298 37Q225 37 171 70ZM395 99T457 143T551 262T583 424Q583
518 538 574T403 630Q317 630 255 586T161 469T128 307Q128 213 174 156T310 99Q395 99 457 143ZM268 536H388Q483 536 483 454Q483 416 465 388T420 342L465 205H380L341 319H311L291 205H210L268 536ZM348 392Q375 392 387 404T399 442Q399 469 363 469H338L324
392H348Z" />
<glyph unicode="&#xaf;" glyph-name="overscore" horiz-adv-x="453" d="M96 669H413L398 591H80L96 669Z" />
<glyph unicode="&#xb0;" glyph-name="degree" horiz-adv-x="290" d="M94 482T66 512T38 590Q38 635 58 673T114 733T193 755Q244 755 272 725T300 646Q300 601 280 563T224 504T145 482Q94 482 66 512ZM192 537T214 567T237 638Q237 666 224 683T183 700Q146 700
123 670T100 599Q100 571 114 554T154 537Q192 537 214 567Z" />
<glyph unicode="&#xb1;" glyph-name="plusminus" horiz-adv-x="441" d="M159 314H27L42 399H175L198 530H287L264 399H397L382 314H249L226 182H136L159 314ZM-4 135H350L335 51H-20L-4 135Z" />
<glyph unicode="&#xb2;" glyph-name="uni00B2" horiz-adv-x="319" d="M186 467H294L280 386H14L153 544Q184 578 198 602T212 650Q212 669 201 679T168 690Q125 690 68 647L76 734Q143 772 205 772Q255 772 284 746T313 678Q313 638 292 602T226 513L186 467Z" />
<glyph unicode="&#xb3;" glyph-name="uni00B3" horiz-adv-x="328" d="M303 562T303 509Q303 471 282 441T224 393T146 376Q76 376 21 411L54 492Q76 474 97 465T144 456Q173 456 190 468T207 504Q207 523 194 534T153 545H123L136 618H167Q193 618 208 629T224
661Q224 677 214 686T182 696Q142 696 90 665L98 749Q154 776 218 776Q268 776 295 752T323 687Q323 653 305 627T253 585Q303 562 303 509Z" />
<glyph unicode="&#xb4;" glyph-name="acute" horiz-adv-x="412" d="M126 650L322 757L304 636L110 572L126 650Z" />
<glyph unicode="&#xb5;" glyph-name="uni00B5" horiz-adv-x="557" d="M107 497H221L171 211Q167 181 167 169Q167 129 187 108T246 86Q297 86 342 131L406 497H520L463 171Q456 131 456 117Q456 83 486 83H504L475 -10H441Q360 -10 342 53Q315 24 281 7T209 -10Q167
-10 135 10L90 -242H-23L107 497Z" />
<glyph unicode="&#xb6;" glyph-name="paragraph" horiz-adv-x="596" d="M270 233Q201 238 154 267T85 340T62 436Q62 501 99 562T208 661T376 700H621L604 605H539L432 0H352L459 605H398L291 0H228L270 233Z" />
<glyph unicode="&#xb7;" glyph-name="middot" horiz-adv-x="230" d="M65 343H182L159 213H42L65 343Z" />
<glyph unicode="&#xb8;" glyph-name="cedilla" horiz-adv-x="313" d="M239 -54T259 -72T280 -124Q280 -173 243 -204T151 -235Q105 -235 73 -216L101 -160Q133 -177 162 -177Q188 -177 202 -166T217 -137Q217 -122 206 -114T172 -106Q149 -106 122 -113L170 0H223L197
-54H204Q239 -54 259 -72Z" />
<glyph unicode="&#xb9;" glyph-name="uni00B9" horiz-adv-x="210" d="M102 655Q65 630 33 622L40 698Q66 706 94 723T140 758H209L143 386H54L102 655Z" />
<glyph unicode="&#xba;" glyph-name="ordmasculine" horiz-adv-x="337" d="M127 434T94 468T60 555Q60 602 84 642T149 706T240 730Q301 730 334 696T368 610Q368 561 344 521T278 457T188 434Q127 434 94 468ZM233 506T252 535T271 605Q271 631 260 644T227 658Q194
658 176 629T157 560Q157 534 168 520T200 506Q233 506 252 535Z" />
<glyph unicode="&#xbb;" glyph-name="guillemotright" horiz-adv-x="577" d="M180 284L73 490H208L314 284L135 78H0L180 284ZM424 284L318 490H453L559 284L380 78H245L424 284Z" />
<glyph unicode="&#xbc;" glyph-name="onequarter" horiz-adv-x="642" d="M347 597Q310 572 278 564L285 640Q311 648 339 665T385 700H454L388 328H299L347 597ZM511 700H605L72 0H-23L511 700ZM618 148L606 80H557L543 0H464L478 80H275L536 372H609L569 148H618ZM490
148L510 254L417 148H490Z" />
<glyph unicode="&#xbd;" glyph-name="onehalf" horiz-adv-x="691" d="M511 700H605L72 0H-23L511 700ZM514 81H622L608 0H342L481 158Q512 192 526 216T540 264Q540 283 529 293T496 304Q453 304 396 261L404 348Q471 386 533 386Q583 386 612 360T641 292Q641
252 620 216T554 127L514 81ZM349 597Q312 572 280 564L287 640Q313 648 341 665T387 700H456L390 328H301L349 597Z" />
<glyph unicode="&#xbe;" glyph-name="threequarters" horiz-adv-x="745" d="M614 700H708L175 0H80L614 700ZM306 500T306 447Q306 409 285 379T227 331T149 314Q79 314 24 349L57 430Q79 412 100 403T147 394Q176 394 193 406T210 442Q210 461 197 472T156 483H126L139
556H170Q196 556 211 567T227 599Q227 615 217 624T185 634Q145 634 93 603L101 687Q157 714 221 714Q271 714 298 690T326 625Q326 591 308 565T256 523Q306 500 306 447ZM721 148L709 80H660L646 0H567L581 80H378L639 372H712L672 148H721ZM593 148L613 254L520
148H593Z" />
<glyph unicode="&#xbf;" glyph-name="questiondown" horiz-adv-x="461" d="M371 373H248L270 500H394L371 373ZM355 289Q345 235 318 198T242 117Q203 81 185 62T153 19T139 -35Q139 -67 161 -84T221 -102Q258 -102 293 -92T367 -64L361 -171Q317 -192 273 -203T173
-214Q93 -214 49 -174T5 -70Q5 -9 37 37T131 139Q176 178 201 210T234 283L237 304H357L355 289Z" />
<glyph unicode="&#xc0;" glyph-name="Agrave" horiz-adv-x="595" d="M317 700H430L541 0H418L391 175H169L82 0H-41L317 700ZM371 288L341 519L229 288H371ZM301 849L321 959L486 848L473 775L301 849Z" />
<glyph unicode="&#xc1;" glyph-name="Aacute" horiz-adv-x="595" d="M317 700H430L541 0H418L391 175H169L82 0H-41L317 700ZM371 288L341 519L229 288H371ZM310 853L506 960L488 839L294 775L310 853Z" />
<glyph unicode="&#xc2;" glyph-name="Acircumflex" horiz-adv-x="595" d="M317 700H430L541 0H418L391 175H169L82 0H-41L317 700ZM371 288L341 519L229 288H371ZM285 847L416 945L524 834L509 760L396 842L268 771L285 847Z" />
<glyph unicode="&#xc3;" glyph-name="Atilde" horiz-adv-x="595" d="M317 700H430L541 0H418L391 175H169L82 0H-41L317 700ZM371 288L341 519L229 288H371ZM456 782T440 787T400 804Q358 825 338 825Q322 825 312 816T298 790H221Q231 847 258 877T326 908Q343
908 359 902T397 884Q412 876 427 870T455 864Q487 864 493 903H572Q561 841 536 812T471 782Q456 782 440 787Z" />
<glyph unicode="&#xc4;" glyph-name="Adieresis" horiz-adv-x="595" d="M317 700H430L541 0H418L391 175H169L82 0H-41L317 700ZM371 288L341 519L229 288H371ZM260 881H351L334 794H243L260 881ZM454 881H545L528 794H437L454 881Z" />
<glyph unicode="&#xc5;" glyph-name="Aring" horiz-adv-x="595" d="M317 700H430L541 0H418L391 175H169L82 0H-41L317 700ZM371 288L341 519L229 288H371ZM341 772T319 794T296 851Q296 883 313 910T358 953T419 969Q460 969 482 947T505 891Q505 841 469 807T382
772Q341 772 319 794ZM413 822T429 839T446 881Q446 898 436 908T410 919Q388 919 371 901T354 860Q354 843 364 833T391 822Q413 822 429 839Z" />
<glyph unicode="&#xc6;" glyph-name="AE" horiz-adv-x="826" d="M390 700H855L834 587H554L525 422H741L721 309H505L470 112H760L740 0H329L359 172H175L67 0H-55L390 700ZM380 287L432 585L250 287H380Z" />
<glyph unicode="&#xc7;" glyph-name="Ccedilla" horiz-adv-x="585" d="M347 602T290 560T203 448T173 296Q173 203 213 151T339 98Q408 98 513 138L506 27Q473 11 431 1T346 -13L326 -54H333Q368 -54 388 -72T409 -124Q409 -173 372 -204T280 -235Q234 -235 202
-216L230 -160Q262 -177 291 -177Q317 -177 331 -166T346 -137Q346 -122 335 -114T301 -106Q278 -106 251 -113L293 -13Q177 -6 110 72T43 286Q43 407 97 505T242 658T442 714Q491 714 539 703T621 673L588 561Q545 580 507 591T426 602Q347 602 290 560Z" />
<glyph unicode="&#xc8;" glyph-name="Egrave" horiz-adv-x="543" d="M150 700H571L551 588H251L222 422H454L435 309H202L167 112H476L456 0H27L150 700ZM293 849L313 959L478 848L465 775L293 849Z" />
<glyph unicode="&#xc9;" glyph-name="Eacute" horiz-adv-x="543" d="M150 700H571L551 588H251L222 422H454L435 309H202L167 112H476L456 0H27L150 700ZM302 853L498 960L480 839L286 775L302 853Z" />
<glyph unicode="&#xca;" glyph-name="Ecircumflex" horiz-adv-x="543" d="M150 700H571L551 588H251L222 422H454L435 309H202L167 112H476L456 0H27L150 700ZM277 847L408 945L516 834L501 760L388 842L260 771L277 847Z" />
<glyph unicode="&#xcb;" glyph-name="Edieresis" horiz-adv-x="543" d="M150 700H571L551 588H251L222 422H454L435 309H202L167 112H476L456 0H27L150 700ZM252 881H343L326 794H235L252 881ZM446 881H537L520 794H429L446 881Z" />
<glyph unicode="&#xcc;" glyph-name="Igrave" horiz-adv-x="275" d="M150 700H268L145 0H27L150 700ZM143 849L163 959L328 848L315 775L143 849Z" />
<glyph unicode="&#xcd;" glyph-name="Iacute" horiz-adv-x="275" d="M150 700H268L145 0H27L150 700ZM152 853L348 960L330 839L136 775L152 853Z" />
<glyph unicode="&#xce;" glyph-name="Icircumflex" horiz-adv-x="275" d="M150 700H268L145 0H27L150 700ZM127 847L258 945L366 834L351 760L238 842L110 771L127 847Z" />
<glyph unicode="&#xcf;" glyph-name="Idieresis" horiz-adv-x="275" d="M150 700H268L145 0H27L150 700ZM102 881H193L176 794H85L102 881ZM296 881H387L370 794H279L296 881Z" />
<glyph unicode="&#xd0;" glyph-name="Eth" horiz-adv-x="703" d="M489 700T550 667T644 569T678 418Q678 293 626 198T483 52T283 0H37L92 311H25L41 401H107L160 700H407Q489 700 550 667ZM381 112T436 150T519 255T548 407Q548 492 508 540T387 588H258L225
401H355L339 311H209L174 112H303Q381 112 436 150Z" />
<glyph unicode="&#xd1;" glyph-name="Ntilde" horiz-adv-x="677" d="M150 700H267L469 226L552 700H670L546 0H450L234 502L145 0H27L150 700ZM488 780T472 785T432 801Q417 808 401 813T374 819Q347 819 341 787H269Q278 837 302 863T366 890Q391 890 435 870Q450
863 466 858T494 852Q521 852 527 885H599Q592 834 567 807T503 780Q488 780 472 785Z" />
<glyph unicode="&#xd2;" glyph-name="Ograve" horiz-adv-x="732" d="M232 -14T171 22T76 125T43 285Q43 405 96 503T240 658T436 714Q520 714 581 678T676 575T709 415Q709 295 656 197T512 42T316 -14Q232 -14 171 22ZM407 98T462 140T548 253T578 405Q578 497
538 549T417 602Q344 602 289 560T203 447T173 295Q173 203 213 151T334 98Q407 98 462 140ZM374 849L394 959L559 848L546 775L374 849Z" />
<glyph unicode="&#xd3;" glyph-name="Oacute" horiz-adv-x="732" d="M232 -14T171 22T76 125T43 285Q43 405 96 503T240 658T436 714Q520 714 581 678T676 575T709 415Q709 295 656 197T512 42T316 -14Q232 -14 171 22ZM407 98T462 140T548 253T578 405Q578 497
538 549T417 602Q344 602 289 560T203 447T173 295Q173 203 213 151T334 98Q407 98 462 140ZM383 853L579 960L561 839L367 775L383 853Z" />
<glyph unicode="&#xd4;" glyph-name="Ocircumflex" horiz-adv-x="732" d="M232 -14T171 22T76 125T43 285Q43 405 96 503T240 658T436 714Q520 714 581 678T676 575T709 415Q709 295 656 197T512 42T316 -14Q232 -14 171 22ZM407 98T462 140T548 253T578 405Q578
497 538 549T417 602Q344 602 289 560T203 447T173 295Q173 203 213 151T334 98Q407 98 462 140ZM358 847L489 945L597 834L582 760L469 842L341 771L358 847Z" />
<glyph unicode="&#xd5;" glyph-name="Otilde" horiz-adv-x="732" d="M232 -14T171 22T76 125T43 285Q43 405 96 503T240 658T436 714Q520 714 581 678T676 575T709 415Q709 295 656 197T512 42T316 -14Q232 -14 171 22ZM407 98T462 140T548 253T578 405Q578 497
538 549T417 602Q344 602 289 560T203 447T173 295Q173 203 213 151T334 98Q407 98 462 140ZM529 782T513 787T473 804Q431 825 411 825Q395 825 385 816T371 790H294Q304 847 331 877T399 908Q416 908 432 902T470 884Q485 876 500 870T528 864Q560 864 566 903H645Q634
841 609 812T544 782Q529 782 513 787Z" />
<glyph unicode="&#xd6;" glyph-name="Odieresis" horiz-adv-x="732" d="M232 -14T171 22T76 125T43 285Q43 405 96 503T240 658T436 714Q520 714 581 678T676 575T709 415Q709 295 656 197T512 42T316 -14Q232 -14 171 22ZM407 98T462 140T548 253T578 405Q578
497 538 549T417 602Q344 602 289 560T203 447T173 295Q173 203 213 151T334 98Q407 98 462 140ZM333 881H424L407 794H316L333 881ZM527 881H618L601 794H510L527 881Z" />
<glyph unicode="&#xd7;" glyph-name="multiply" horiz-adv-x="457" d="M265 273L360 156L292 99L198 215L60 97L4 163L143 282L48 400L116 457L211 340L349 458L405 392L265 273Z" />
<glyph unicode="&#xd8;" glyph-name="Oslash" horiz-adv-x="732" d="M639 630Q709 551 709 415Q709 295 656 197T512 42T316 -14Q231 -14 171 22L120 -44H22L111 72Q43 151 43 285Q43 405 96 503T240 658T436 714Q517 714 579 680L628 744H727L639 630ZM173 226T195
181L502 581Q469 602 417 602Q344 602 289 560T203 447T173 295Q173 226 195 181ZM578 476T555 521L247 120Q283 98 334 98Q407 98 462 140T548 253T578 405Q578 476 555 521Z" />
<glyph unicode="&#xd9;" glyph-name="Ugrave" horiz-adv-x="687" d="M177 -14T121 44T64 210Q64 255 72 299L143 700H260L197 343Q187 287 187 240Q187 172 215 135T309 98Q398 98 442 163T508 343L571 700H689L618 299Q592 152 509 69T290 -14Q177 -14 121 44ZM349
849L369 959L534 848L521 775L349 849Z" />
<glyph unicode="&#xda;" glyph-name="Uacute" horiz-adv-x="687" d="M177 -14T121 44T64 210Q64 255 72 299L143 700H260L197 343Q187 287 187 240Q187 172 215 135T309 98Q398 98 442 163T508 343L571 700H689L618 299Q592 152 509 69T290 -14Q177 -14 121 44ZM358
853L554 960L536 839L342 775L358 853Z" />
<glyph unicode="&#xdb;" glyph-name="Ucircumflex" horiz-adv-x="687" d="M177 -14T121 44T64 210Q64 255 72 299L143 700H260L197 343Q187 287 187 240Q187 172 215 135T309 98Q398 98 442 163T508 343L571 700H689L618 299Q592 152 509 69T290 -14Q177 -14 121
44ZM333 847L464 945L572 834L557 760L444 842L316 771L333 847Z" />
<glyph unicode="&#xdc;" glyph-name="Udieresis" horiz-adv-x="687" d="M177 -14T121 44T64 210Q64 255 72 299L143 700H260L197 343Q187 287 187 240Q187 172 215 135T309 98Q398 98 442 163T508 343L571 700H689L618 299Q592 152 509 69T290 -14Q177 -14 121
44ZM308 881H399L382 794H291L308 881ZM502 881H593L576 794H485L502 881Z" />
<glyph unicode="&#xdd;" glyph-name="Yacute" horiz-adv-x="586" d="M234 314L75 700H200L314 417L523 700H648L353 314L297 0H179L234 314ZM303 853L499 960L481 839L287 775L303 853Z" />
<glyph unicode="&#xde;" glyph-name="Thorn" horiz-adv-x="531" d="M141 700H259L233 552H352Q444 552 492 511T541 396Q541 292 472 233T285 173H166L135 0H17L141 700ZM289 273Q352 273 385 300T418 378Q418 415 395 433T321 452H215L184 273H289Z" />
<glyph unicode="&#xdf;" glyph-name="germandbls" horiz-adv-x="607" d="M253 -14T206 -3L222 92Q274 81 323 81Q375 81 409 105T444 175Q444 207 426 227T372 273Q337 297 319 317T301 369Q301 401 323 431T393 503Q432 538 447 558T463 608Q462 636 441 652T379
669Q322 669 287 635T240 538L145 0H30L102 405H34L60 497H118L125 536Q145 648 218 706T399 764Q482 764 530 729T579 632Q579 586 560 555T497 483L479 467Q448 440 435 423T421 388Q421 368 434 354T476 318Q504 297 520 281T549 241T561 183Q561 123 526 79T433
10T308 -14Q253 -14 206 -3Z" />
<glyph unicode="&#xe0;" glyph-name="agrave" horiz-adv-x="571" d="M115 -10T67 46T19 194Q19 274 53 345T150 461T293 506Q368 506 408 457L424 497H523L465 153Q461 132 461 115Q461 94 470 89T509 83L482 -10Q435 -10 411 -6T372 12T346 52Q315 23 280 7T197
-10Q115 -10 67 46ZM283 85T315 115T362 191T377 287Q377 347 354 378T284 410Q242 410 209 383T156 311T137 211Q137 153 161 119T236 85Q283 85 315 115ZM262 646L282 756L447 645L434 572L262 646Z" />
<glyph unicode="&#xe1;" glyph-name="aacute" horiz-adv-x="571" d="M115 -10T67 46T19 194Q19 274 53 345T150 461T293 506Q368 506 408 457L424 497H523L465 153Q461 132 461 115Q461 94 470 89T509 83L482 -10Q435 -10 411 -6T372 12T346 52Q315 23 280 7T197
-10Q115 -10 67 46ZM283 85T315 115T362 191T377 287Q377 347 354 378T284 410Q242 410 209 383T156 311T137 211Q137 153 161 119T236 85Q283 85 315 115ZM271 650L467 757L449 636L255 572L271 650Z" />
<glyph unicode="&#xe2;" glyph-name="acircumflex" horiz-adv-x="571" d="M115 -10T67 46T19 194Q19 274 53 345T150 461T293 506Q368 506 408 457L424 497H523L465 153Q461 132 461 115Q461 94 470 89T509 83L482 -10Q435 -10 411 -6T372 12T346 52Q315 23 280
7T197 -10Q115 -10 67 46ZM283 85T315 115T362 191T377 287Q377 347 354 378T284 410Q242 410 209 383T156 311T137 211Q137 153 161 119T236 85Q283 85 315 115ZM246 644L377 742L485 631L470 557L357 639L229 568L246 644Z" />
<glyph unicode="&#xe3;" glyph-name="atilde" horiz-adv-x="571" d="M115 -10T67 46T19 194Q19 274 53 345T150 461T293 506Q368 506 408 457L424 497H523L465 153Q461 132 461 115Q461 94 470 89T509 83L482 -10Q435 -10 411 -6T372 12T346 52Q315 23 280 7T197
-10Q115 -10 67 46ZM283 85T315 115T362 191T377 287Q377 347 354 378T284 410Q242 410 209 383T156 311T137 211Q137 153 161 119T236 85Q283 85 315 115ZM417 579T401 584T361 601Q319 622 299 622Q283 622 273 613T259 587H182Q192 644 219 674T287 705Q304
705 320 699T358 681Q373 673 388 667T416 661Q448 661 454 700H533Q522 638 497 609T432 579Q417 579 401 584Z" />
<glyph unicode="&#xe4;" glyph-name="adieresis" horiz-adv-x="571" d="M115 -10T67 46T19 194Q19 274 53 345T150 461T293 506Q368 506 408 457L424 497H523L465 153Q461 132 461 115Q461 94 470 89T509 83L482 -10Q435 -10 411 -6T372 12T346 52Q315 23 280
7T197 -10Q115 -10 67 46ZM283 85T315 115T362 191T377 287Q377 347 354 378T284 410Q242 410 209 383T156 311T137 211Q137 153 161 119T236 85Q283 85 315 115ZM221 678H312L295 591H204L221 678ZM415 678H506L489 591H398L415 678Z" />
<glyph unicode="&#xe5;" glyph-name="aring" horiz-adv-x="571" d="M115 -10T67 46T19 194Q19 274 53 345T150 461T293 506Q368 506 408 457L424 497H523L465 153Q461 132 461 115Q461 94 470 89T509 83L482 -10Q435 -10 411 -6T372 12T346 52Q315 23 280 7T197
-10Q115 -10 67 46ZM283 85T315 115T362 191T377 287Q377 347 354 378T284 410Q242 410 209 383T156 311T137 211Q137 153 161 119T236 85Q283 85 315 115ZM302 569T280 591T257 648Q257 680 274 707T319 750T380 766Q421 766 443 744T466 688Q466 638 430 604T343
569Q302 569 280 591ZM374 619T390 636T407 678Q407 695 397 705T371 716Q349 716 332 698T315 657Q315 640 325 630T352 619Q374 619 390 636Z" />
<glyph unicode="&#xe6;" glyph-name="ae" horiz-adv-x="756" d="M59 -15T25 15T-9 99Q-9 214 84 259T295 312Q295 348 290 368T270 397T223 407Q193 407 162 399T89 371L95 463Q189 506 271 506Q328 506 359 485T396 407Q416 450 467 478T578 506Q649 506 690
461T732 337Q732 311 727 287T708 230H408L407 213Q407 205 409 191Q414 138 444 111T519 83Q552 83 594 94T669 123L659 29Q583 -10 496 -10Q426 -10 383 15T325 90Q283 39 235 12T123 -15Q59 -15 25 15ZM626 307Q629 324 629 338Q628 371 611 390T557 410Q514
410 478 383T425 307H626ZM186 75T211 89T256 131T283 201Q287 224 288 235Q249 234 209 223T142 186T114 123Q114 100 127 88T163 75Q186 75 211 89Z" />
<glyph unicode="&#xe7;" glyph-name="ccedilla" horiz-adv-x="431" d="M254 410T216 384T158 313T138 213Q138 152 165 119T249 85Q304 85 363 123L357 25Q309 -3 242 -9L220 -54H227Q262 -54 282 -72T303 -124Q303 -173 266 -204T174 -235Q128 -235 96 -216L124
-160Q156 -177 185 -177Q211 -177 225 -166T240 -137Q240 -122 229 -114T195 -106Q172 -106 145 -113L189 -9Q103 -1 62 55T20 200Q20 281 53 351T152 463T307 506Q386 506 435 471L407 373Q357 410 306 410Q254 410 216 384Z" />
<glyph unicode="&#xe8;" glyph-name="egrave" horiz-adv-x="479" d="M128 -10T74 49T19 204Q19 282 54 351T152 463T296 506Q372 506 413 469T454 367Q454 288 391 245T219 202Q169 202 139 209Q141 143 174 114T258 85Q334 85 408 123L397 28Q365 11 323 1T234
-10Q128 -10 74 49ZM285 277T321 301T357 359Q357 388 337 399T290 410Q239 410 202 373T149 283Q169 277 202 277Q285 277 321 301ZM238 646L258 756L423 645L410 572L238 646Z" />
<glyph unicode="&#xe9;" glyph-name="eacute" horiz-adv-x="479" d="M128 -10T74 49T19 204Q19 282 54 351T152 463T296 506Q372 506 413 469T454 367Q454 288 391 245T219 202Q169 202 139 209Q141 143 174 114T258 85Q334 85 408 123L397 28Q365 11 323 1T234
-10Q128 -10 74 49ZM285 277T321 301T357 359Q357 388 337 399T290 410Q239 410 202 373T149 283Q169 277 202 277Q285 277 321 301ZM247 650L443 757L425 636L231 572L247 650Z" />
<glyph unicode="&#xea;" glyph-name="ecircumflex" horiz-adv-x="479" d="M128 -10T74 49T19 204Q19 282 54 351T152 463T296 506Q372 506 413 469T454 367Q454 288 391 245T219 202Q169 202 139 209Q141 143 174 114T258 85Q334 85 408 123L397 28Q365 11 323
1T234 -10Q128 -10 74 49ZM285 277T321 301T357 359Q357 388 337 399T290 410Q239 410 202 373T149 283Q169 277 202 277Q285 277 321 301ZM222 644L353 742L461 631L446 557L333 639L205 568L222 644Z" />
<glyph unicode="&#xeb;" glyph-name="edieresis" horiz-adv-x="479" d="M128 -10T74 49T19 204Q19 282 54 351T152 463T296 506Q372 506 413 469T454 367Q454 288 391 245T219 202Q169 202 139 209Q141 143 174 114T258 85Q334 85 408 123L397 28Q365 11 323 1T234
-10Q128 -10 74 49ZM285 277T321 301T357 359Q357 388 337 399T290 410Q239 410 202 373T149 283Q169 277 202 277Q285 277 321 301ZM197 678H288L271 591H180L197 678ZM391 678H482L465 591H374L391 678Z" />
<glyph unicode="&#xec;" glyph-name="igrave" horiz-adv-x="234" d="M95 497H209L122 0H8L95 497ZM85 646L105 756L270 645L257 572L85 646Z" />
<glyph unicode="&#xed;" glyph-name="iacute" horiz-adv-x="234" d="M95 497H209L122 0H8L95 497ZM94 650L290 757L272 636L78 572L94 650Z" />
<glyph unicode="&#xee;" glyph-name="icircumflex" horiz-adv-x="234" d="M95 497H209L122 0H8L95 497ZM69 644L200 742L308 631L293 557L180 639L52 568L69 644Z" />
<glyph unicode="&#xef;" glyph-name="idieresis" horiz-adv-x="234" d="M95 497H209L122 0H8L95 497ZM300 678H391L374 591H283L300 678ZM494 678H585L568 591H477L494 678Z" />
<glyph unicode="&#xf0;" glyph-name="eth" horiz-adv-x="496" d="M379 574Q456 470 456 328Q456 228 424 151T333 30T195 -13Q138 -13 95 11T28 77T4 173Q4 240 33 298T114 391T234 426Q278 426 308 409T356 365Q356 462 304 541L183 490L153 553L256 597Q225
626 180 649L216 701Q279 674 330 629L431 672L460 608L379 574ZM238 83T266 100T311 150T329 228Q329 277 307 305T243 333Q205 333 177 313T133 258T117 186Q117 140 140 112T208 83Q238 83 266 100Z" />
<glyph unicode="&#xf1;" glyph-name="ntilde" horiz-adv-x="530" d="M95 497H195L197 460Q228 483 259 494T329 506Q404 506 441 462T478 340Q478 322 469 262T424 0H309Q339 172 350 242T362 325Q362 369 344 389T287 410Q227 410 186 361L122 0H8L95 497ZM396
572T380 577T340 594Q298 615 278 615Q262 615 252 606T238 580H161Q171 637 198 667T266 698Q283 698 299 692T337 674Q352 666 367 660T395 654Q427 654 433 693H512Q501 631 476 602T411 572Q396 572 380 577Z" />
<glyph unicode="&#xf2;" glyph-name="ograve" horiz-adv-x="538" d="M122 -10T70 50T18 203Q18 282 55 352T157 464T303 506Q400 506 452 446T504 293Q504 214 467 144T365 32T219 -10Q122 -10 70 50ZM278 85T313 112T367 184T386 284Q386 345 361 377T287 410Q243
410 209 384T155 312T136 212Q136 151 161 118T234 85Q278 85 313 112ZM243 646L263 756L428 645L415 572L243 646Z" />
<glyph unicode="&#xf3;" glyph-name="oacute" horiz-adv-x="538" d="M122 -10T70 50T18 203Q18 282 55 352T157 464T303 506Q400 506 452 446T504 293Q504 214 467 144T365 32T219 -10Q122 -10 70 50ZM278 85T313 112T367 184T386 284Q386 345 361 377T287 410Q243
410 209 384T155 312T136 212Q136 151 161 118T234 85Q278 85 313 112ZM252 650L448 757L430 636L236 572L252 650Z" />
<glyph unicode="&#xf4;" glyph-name="ocircumflex" horiz-adv-x="538" d="M122 -10T70 50T18 203Q18 282 55 352T157 464T303 506Q400 506 452 446T504 293Q504 214 467 144T365 32T219 -10Q122 -10 70 50ZM278 85T313 112T367 184T386 284Q386 345 361 377T287
410Q243 410 209 384T155 312T136 212Q136 151 161 118T234 85Q278 85 313 112ZM227 644L358 742L466 631L451 557L338 639L210 568L227 644Z" />
<glyph unicode="&#xf5;" glyph-name="otilde" horiz-adv-x="538" d="M122 -10T70 50T18 203Q18 282 55 352T157 464T303 506Q400 506 452 446T504 293Q504 214 467 144T365 32T219 -10Q122 -10 70 50ZM278 85T313 112T367 184T386 284Q386 345 361 377T287 410Q243
410 209 384T155 312T136 212Q136 151 161 118T234 85Q278 85 313 112ZM398 579T382 584T342 601Q300 622 280 622Q264 622 254 613T240 587H163Q173 644 200 674T268 705Q285 705 301 699T339 681Q354 673 369 667T397 661Q429 661 435 700H514Q503 638 478 609T413
579Q398 579 382 584Z" />
<glyph unicode="&#xf6;" glyph-name="odieresis" horiz-adv-x="538" d="M122 -10T70 50T18 203Q18 282 55 352T157 464T303 506Q400 506 452 446T504 293Q504 214 467 144T365 32T219 -10Q122 -10 70 50ZM278 85T313 112T367 184T386 284Q386 345 361 377T287
410Q243 410 209 384T155 312T136 212Q136 151 161 118T234 85Q278 85 313 112ZM202 678H293L276 591H185L202 678ZM396 678H487L470 591H379L396 678Z" />
<glyph unicode="&#xf7;" glyph-name="divide" horiz-adv-x="470" d="M198 508H308L287 390H177L198 508ZM23 322H418L403 234H7L23 322ZM137 167H247L227 49H117L137 167Z" />
<glyph unicode="&#xf8;" glyph-name="oslash" horiz-adv-x="538" d="M454 444Q504 385 504 293Q504 214 467 144T365 32T219 -10Q167 -10 128 8L92 -40H7L72 47Q45 76 32 116T18 203Q18 282 55 352T157 464T303 506Q360 506 400 485L433 530H518L454 444ZM136
172T146 146L335 399Q315 410 287 410Q243 410 209 384T155 312T136 212Q136 172 146 146ZM386 316T378 343L192 93Q211 85 234 85Q278 85 313 112T367 184T386 284Q386 316 378 343Z" />
<glyph unicode="&#xf9;" glyph-name="ugrave" horiz-adv-x="527" d="M113 -10T74 33T35 153Q35 181 42 219L90 497H204L158 230Q151 191 151 173Q151 87 227 87Q284 87 324 133L389 497H503L415 0H308L313 42Q284 17 255 4T188 -10Q113 -10 74 33ZM229 646L249
756L414 645L401 572L229 646Z" />
<glyph unicode="&#xfa;" glyph-name="uacute" horiz-adv-x="527" d="M113 -10T74 33T35 153Q35 181 42 219L90 497H204L158 230Q151 191 151 173Q151 87 227 87Q284 87 324 133L389 497H503L415 0H308L313 42Q284 17 255 4T188 -10Q113 -10 74 33ZM238 650L434
757L416 636L222 572L238 650Z" />
<glyph unicode="&#xfb;" glyph-name="ucircumflex" horiz-adv-x="527" d="M113 -10T74 33T35 153Q35 181 42 219L90 497H204L158 230Q151 191 151 173Q151 87 227 87Q284 87 324 133L389 497H503L415 0H308L313 42Q284 17 255 4T188 -10Q113 -10 74 33ZM213 644L344
742L452 631L437 557L324 639L196 568L213 644Z" />
<glyph unicode="&#xfc;" glyph-name="udieresis" horiz-adv-x="527" d="M113 -10T74 33T35 153Q35 181 42 219L90 497H204L158 230Q151 191 151 173Q151 87 227 87Q284 87 324 133L389 497H503L415 0H308L313 42Q284 17 255 4T188 -10Q113 -10 74 33ZM188 678H279L262
591H171L188 678ZM382 678H473L456 591H365L382 678Z" />
<glyph unicode="&#xfd;" glyph-name="yacute" horiz-adv-x="504" d="M147 30L33 497H160L224 162L406 497H533L109 -242H-6L147 30ZM226 650L422 757L404 636L210 572L226 650Z" />
<glyph unicode="&#xfe;" glyph-name="thorn" horiz-adv-x="548" d="M140 750H254L201 456Q264 506 341 506Q422 506 467 449T513 296Q513 209 482 139T395 30T264 -10Q218 -10 185 8T131 58L79 -242H-35L140 750ZM296 85T327 111T377 184T395 286Q395 343 373
376T305 410Q262 410 228 384T174 310T154 205Q154 145 179 115T255 85Q296 85 327 111Z" />
<glyph unicode="&#xff;" glyph-name="ydieresis" horiz-adv-x="504" d="M147 30L33 497H160L224 162L406 497H533L109 -242H-6L147 30ZM176 678H267L250 591H159L176 678ZM370 678H461L444 591H353L370 678Z" />
<glyph unicode="&#x2013;" glyph-name="endash" horiz-adv-x="644" d="M16 357H644L627 265H0L16 357Z" />
<glyph unicode="&#x2014;" glyph-name="emdash" horiz-adv-x="731" d="M16 357H731L716 265H0L16 357Z" />
<glyph unicode="&#x2018;" glyph-name="quoteleft" horiz-adv-x="202" d="M235 700L173 584H219L196 457H73L93 573L177 700H235Z" />
<glyph unicode="&#x2019;" glyph-name="quoteright" horiz-adv-x="196" d="M67 457L129 573H83L106 700H229L209 584L125 457H67Z" />
<glyph unicode="&#x201a;" glyph-name="quotesinglbase" horiz-adv-x="196" d="M-29 -116L33 0H-13L10 127H133L113 11L29 -116H-29Z" />
<glyph unicode="&#x201c;" glyph-name="quotedblleft" horiz-adv-x="383" d="M236 709L174 593H220L197 466H74L94 582L178 709H236ZM417 709L355 593H401L378 466H255L275 582L359 709H417Z" />
<glyph unicode="&#x201d;" glyph-name="quotedblright" horiz-adv-x="376" d="M67 457L129 573H83L106 700H229L209 584L125 457H67ZM247 457L309 573H263L286 700H409L389 584L305 457H247Z" />
<glyph unicode="&#x201e;" glyph-name="quotedblbase" horiz-adv-x="377" d="M-29 -116L33 0H-13L10 127H133L113 11L29 -116H-29ZM152 -116L214 0H168L191 127H314L294 11L210 -116H152Z" />
<glyph unicode="&#x2022;" glyph-name="bullet" horiz-adv-x="290" d="M85 169T61 196T37 262Q37 295 54 323T101 369T161 387Q198 387 222 360T246 294Q246 261 229 233T183 187T122 169Q85 169 61 196Z" />
<glyph unicode="&#x2039;" glyph-name="guilsinglleft" horiz-adv-x="333" d="M14 284L193 490H329L149 284L257 78H121L14 284Z" />
<glyph unicode="&#x203a;" glyph-name="guilsinglright" horiz-adv-x="333" d="M180 284L73 490H209L315 284L136 78H0L180 284Z" />
</font>
</defs>
</svg>
