<?xml version="1.0" standalone="no"?>
<!DOCTYPE svg PUBLIC "-//W3C//DTD SVG 1.1//EN" "http://www.w3.org/Graphics/SVG/1.1/DTD/svg11.dtd">
<svg xmlns="http://www.w3.org/2000/svg">
<defs >
<font id="Cabin" horiz-adv-x="538" ><font-face
    font-family="Cabin"
    units-per-em="1000"
    panose-1="0 0 8 0 0 0 0 0 0 0"
    ascent="965"
    descent="-250"
    alphabetic="0" />
<glyph unicode=" " glyph-name="space" horiz-adv-x="225" />
<glyph unicode="!" glyph-name="exclam" horiz-adv-x="250" d="M74 236L63 700H187L176 236V207H74V236ZM60 136H190V0H60V136Z" />
<glyph unicode="&quot;" glyph-name="quotedbl" horiz-adv-x="354" d="M30 700H154L134 500H50L30 700ZM200 700H324L304 500H220L200 700Z" />
<glyph unicode="#" glyph-name="numbersign" horiz-adv-x="710" d="M149 211H31L77 315H189L226 414H105L137 512H263L337 700H431L359 512H473L545 700H639L567 512H678L644 414H530L493 315H618L570 211H453L369 -11H273L357 211H245L159 -11H65L149 211ZM397
315L436 414H322L283 315H397Z" />
<glyph unicode="$" glyph-name="dollar" horiz-adv-x="580" d="M551 120T510 64T355 -9L363 -144H265L272 -14Q214 -13 150 3T48 37L63 173Q195 109 295 109Q348 109 378 129T408 190Q408 220 392 239T344 272T245 310Q181 332 139 356T73 419T48 514Q48 598 106
652T273 713L265 844H363L355 711Q438 702 524 669L511 538Q449 565 398 578T295 592Q238 592 208 573T178 518Q178 490 194 472T237 442T319 413Q440 375 495 326T551 190Q551 120 510 64Z" />
<glyph unicode="%" glyph-name="percent" horiz-adv-x="919" d="M137 314T92 370T46 517Q46 606 93 660T217 714Q294 714 341 660T388 517Q388 427 342 371T217 314Q137 314 92 370ZM250 401T268 431T286 517Q286 571 268 599T217 627Q185 627 167 599T148 517Q148
401 217 401Q250 401 268 431ZM617 700H716L304 0H204L617 700ZM622 -14T577 42T531 189Q531 278 578 332T702 386Q779 386 826 332T873 189Q873 99 827 43T702 -14Q622 -14 577 42ZM735 73T753 103T771 189Q771 243 753 271T702 299Q670 299 652 271T633 189Q633
73 702 73Q735 73 753 103Z" />
<glyph unicode="&amp;" glyph-name="ampersand" horiz-adv-x="627" d="M187 -24T135 2T58 72T32 168Q32 231 64 278T154 367Q79 461 79 538Q79 588 106 625T177 683T273 703Q352 703 396 664T441 559Q441 518 422 486T376 430T299 371L439 211Q447 253 448 299T449
352H568Q568 213 519 120L624 0H480L449 34Q376 -24 265 -24Q187 -24 135 2ZM288 461T310 487T332 546Q332 575 316 589T271 604Q240 604 221 586T201 533Q201 509 212 486T247 432Q288 461 310 487ZM347 71T386 105L213 300Q161 245 161 179Q161 133 188 102T282
71Q347 71 386 105Z" />
<glyph unicode="&apos;" glyph-name="quotesingle" horiz-adv-x="184" d="M30 700H154L134 500H50L30 700Z" />
<glyph unicode="(" glyph-name="parenleft" horiz-adv-x="328" d="M132 -40T96 65T60 307Q60 444 96 549T194 750H300Q246 658 215 551T184 307Q184 170 215 63T300 -136H194Q132 -40 96 65Z" />
<glyph unicode=")" glyph-name="parenright" horiz-adv-x="328" d="M82 -43T113 64T144 307Q144 443 113 550T28 750H134Q196 654 232 549T268 307Q268 170 232 65T134 -136H28Q82 -43 113 64Z" />
<glyph unicode="*" glyph-name="asterisk" horiz-adv-x="435" d="M157 561L30 635L72 698L185 620L180 755H255L250 620L363 698L405 635L278 561L405 487L363 424L250 502L255 362H180L185 502L72 424L30 487L157 561Z" />
<glyph unicode="+" glyph-name="plus" horiz-adv-x="450" d="M174 230H40V324H174V458H276V324H410V230H276V96H174V230Z" />
<glyph unicode="," glyph-name="comma" horiz-adv-x="232" d="M62 -120L105 0H54V136H184V12L120 -120H62Z" />
<glyph unicode="-" glyph-name="hyphen" horiz-adv-x="418" d="M54 358H364V264H54V358Z" />
<glyph unicode="." glyph-name="period" horiz-adv-x="222" d="M46 136H176V0H46V136Z" />
<glyph unicode="/" glyph-name="slash" horiz-adv-x="359" d="M260 700H385L117 -85H-8L260 700Z" />
<glyph unicode="0" glyph-name="zero" horiz-adv-x="706" d="M265 -14T199 32T95 162T58 356Q58 461 95 542T199 669T353 714Q441 714 508 669T611 542T648 356Q648 246 612 162T508 32T353 -14Q265 -14 199 32ZM429 101T474 164T520 356Q520 476 474 538T353
601Q278 601 232 539T186 356Q186 228 231 165T353 101Q429 101 474 164Z" />
<glyph unicode="1" glyph-name="one" horiz-adv-x="369" d="M144 519Q102 491 56 483L45 591Q78 598 119 631T174 700H272V0H144V519Z" />
<glyph unicode="2" glyph-name="two" horiz-adv-x="529" d="M228 283Q286 372 307 417T329 502Q329 545 305 569T237 594Q189 594 148 571T68 509L52 638Q99 676 150 695T263 714Q324 714 367 689T431 620T453 525Q453 466 428 404T338 245L256 120H478V0H44L228 283Z" />
<glyph unicode="3" glyph-name="three" horiz-adv-x="539" d="M413 351T446 307T480 199Q480 98 413 42T231 -14Q173 -14 122 -1T34 31L65 139Q151 96 231 96Q287 96 319 122T352 199Q352 305 223 305H152V425H222Q276 425 304 449T333 519Q333 558 307 581T231
604Q191 604 154 592T76 557L57 670Q141 714 244 714Q344 714 399 665T455 535Q455 478 429 436T355 370Q413 351 446 307Z" />
<glyph unicode="4" glyph-name="four" horiz-adv-x="621" d="M569 264V160H479V0H356V160H7L392 700H479V264H569ZM356 264V479L205 264H356Z" />
<glyph unicode="5" glyph-name="five" horiz-adv-x="537" d="M362 440T424 381T487 218Q487 147 456 95T369 15T241 -13Q131 -13 49 43L79 159Q119 134 157 121T239 107Q296 107 329 137T363 218Q363 273 325 304T215 335Q159 335 84 321L129 700H459L451 576H225L208
437Q232 440 260 440Q362 440 424 381Z" />
<glyph unicode="6" glyph-name="six" horiz-adv-x="562" d="M373 421T420 394T493 319T520 210Q520 144 492 93T412 14T290 -14Q218 -14 163 18T78 110T48 247Q48 353 96 446T217 607T368 714L457 644Q384 608 305 541T189 387Q241 421 315 421Q373 421 420 394ZM340
92T372 124T404 205Q404 252 372 283T292 315Q243 315 212 284T180 205Q180 157 212 125T292 92Q340 92 372 124Z" />
<glyph unicode="7" glyph-name="seven" horiz-adv-x="510" d="M503 700L211 0H77L319 580H43V700H503Z" />
<glyph unicode="8" glyph-name="eight" horiz-adv-x="604" d="M492 354T520 307T548 201Q548 138 518 89T432 13T302 -14Q227 -14 172 13T86 89T56 201Q56 261 84 307T164 381Q128 406 108 443T88 525Q88 574 111 617T182 687T302 714Q374 714 421 687T490 617T512
525Q512 480 494 443T442 381Q492 354 520 307ZM254 614T227 590T200 524Q200 485 227 459T302 433Q349 433 374 459T400 524Q400 565 375 589T302 614Q254 614 227 590ZM362 96T396 126T430 209Q430 258 396 289T302 320Q243 320 209 289T174 209Q174 157 208
127T302 96Q362 96 396 126Z" />
<glyph unicode="9" glyph-name="nine" horiz-adv-x="562" d="M350 714T405 682T490 590T520 453Q520 351 474 261T356 104T210 0L121 70Q190 104 265 168T378 312Q328 279 253 279Q195 279 148 306T75 381T48 490Q48 556 76 607T156 686T278 714Q350 714 405 682ZM324
389T355 419T386 495Q386 541 355 572T276 604Q229 604 198 573T166 495Q166 449 197 419T276 389Q324 389 355 419Z" />
<glyph unicode=":" glyph-name="colon" horiz-adv-x="222" d="M46 500H176V364H46V500ZM46 136H176V0H46V136Z" />
<glyph unicode=";" glyph-name="semicolon" horiz-adv-x="230" d="M62 -120L105 0H54V136H184V12L120 -120H62ZM54 500H184V364H54V500Z" />
<glyph unicode="&lt;" glyph-name="less" horiz-adv-x="411" d="M40 225V329L393 488V384L144 277L393 171V67L40 225Z" />
<glyph unicode="=" glyph-name="equal" horiz-adv-x="450" d="M40 404H410V312H40V404ZM40 242H410V150H40V242Z" />
<glyph unicode="&gt;" glyph-name="greater" horiz-adv-x="411" d="M18 171L267 277L18 384V488L371 329V225L18 67V171Z" />
<glyph unicode="?" glyph-name="question" horiz-adv-x="467" d="M124 217Q124 270 145 306T206 383Q252 429 269 454T287 515Q287 551 263 571T198 591Q160 591 127 582T54 553L40 671Q84 692 127 703T228 714Q289 714 334 691T403 628T427 537Q427 488 404 449T332
361Q294 323 275 293T255 223V207H124V217ZM124 136H254V0H124V136Z" />
<glyph unicode="@" glyph-name="at" horiz-adv-x="722" d="M181 -87T115 -19T48 170Q48 276 99 364T238 502T425 553Q542 553 608 485T674 300Q674 215 639 155T532 94Q510 94 500 104T489 145Q489 170 495 196T516 274Q534 332 544 379Q522 402 492 417T423 432Q362
432 303 391T206 285T168 153Q168 105 190 73T259 40Q305 40 356 71T439 156Q436 135 436 121Q436 91 450 67T494 42Q518 42 552 58T613 96L616 93Q566 11 481 -38T296 -87Q181 -87 115 -19ZM270 106T259 124T248 173Q248 225 277 270T350 343T432 371Q469 371
477 349Q468 297 436 240T364 144T292 106Q270 106 259 124Z" />
<glyph unicode="A" glyph-name="A" horiz-adv-x="625" d="M440 166H185L127 0H3L252 700H373L622 0H498L440 166ZM400 278L313 528L225 278H400Z" />
<glyph unicode="B" glyph-name="B" horiz-adv-x="626" d="M597 340T597 199Q597 105 536 53T369 0H77V700H341Q541 700 541 531Q541 427 464 383Q597 340 597 199ZM205 425H322Q369 425 392 444T415 505Q415 548 392 567T322 586H205V425ZM406 114T435 136T465
213Q465 266 435 288T350 311H205V114H350Q406 114 435 136Z" />
<glyph unicode="C" glyph-name="C" horiz-adv-x="609" d="M288 -14T207 31T80 158T35 350Q35 458 81 540T210 668T398 714Q499 714 579 673L565 551Q522 570 483 580T397 591Q290 591 233 525T175 350Q175 241 231 175T394 109Q441 109 480 119T565 149L579 27Q492
-14 394 -14Q288 -14 207 31Z" />
<glyph unicode="D" glyph-name="D" horiz-adv-x="720" d="M77 700H339Q439 700 517 658T640 537T684 350Q684 242 640 163T518 42T339 0H77V700ZM339 114Q439 114 491 176T544 350Q544 461 492 523T339 586H205V114H339Z" />
<glyph unicode="E" glyph-name="E" horiz-adv-x="568" d="M77 700H525V576H208V427H454V303H208V124H535V0H77V700Z" />
<glyph unicode="F" glyph-name="F" horiz-adv-x="525" d="M77 700H508V576H205V427H439V303H205V0H77V700Z" />
<glyph unicode="G" glyph-name="G" horiz-adv-x="664" d="M278 -14T199 31T77 158T35 351Q35 459 81 541T211 669T401 714Q455 714 506 703T594 673L580 551Q493 591 401 591Q289 591 232 526T175 353Q175 242 231 176T393 109Q436 109 489 120V245H393V351H617V39Q578
16 518 1T388 -14Q278 -14 199 31Z" />
<glyph unicode="H" glyph-name="H" horiz-adv-x="730" d="M77 700H205V423H525V700H653V0H525V303H205V0H77V700Z" />
<glyph unicode="I" glyph-name="I" horiz-adv-x="282" d="M77 700H205V0H77V700Z" />
<glyph unicode="J" glyph-name="J" horiz-adv-x="282" d="M-4 -62Q40 -62 58 -43T77 24V700H205V-4Q205 -92 163 -132T43 -172H7L-4 -62Z" />
<glyph unicode="K" glyph-name="K" horiz-adv-x="627" d="M77 700H205V0H77V700ZM215 370L474 700H624L363 370L624 0H474L215 370Z" />
<glyph unicode="L" glyph-name="L" horiz-adv-x="500" d="M77 700H205V114H493V0H77V700Z" />
<glyph unicode="M" glyph-name="M" horiz-adv-x="833" d="M656 0L596 469L417 147L237 468L177 0H44L141 700H246L417 381L587 700H692L789 0H656Z" />
<glyph unicode="N" glyph-name="N" horiz-adv-x="707" d="M77 700H203L502 248V700H630V0H525L205 480V0H77V700Z" />
<glyph unicode="O" glyph-name="O" horiz-adv-x="760" d="M281 -14T203 31T80 159T35 350Q35 458 79 540T202 668T380 714Q479 714 557 669T680 541T725 350Q725 242 681 160T558 32T380 -14Q281 -14 203 31ZM482 110T536 176T591 350Q591 458 537 524T380 590Q278
590 224 524T169 350Q169 242 223 176T380 110Q482 110 536 176Z" />
<glyph unicode="P" glyph-name="P" horiz-adv-x="596" d="M77 700H326Q575 700 575 474Q575 357 512 300T329 243H205V0H77V700ZM314 350Q380 350 412 380T445 472Q445 534 412 563T311 593H205V350H314Z" />
<glyph unicode="Q" glyph-name="Q" horiz-adv-x="760" d="M725 220T661 126L724 66L645 -19L579 44Q491 -14 380 -14Q281 -14 203 31T80 159T35 350Q35 458 79 540T202 668T380 714Q479 714 557 669T680 541T725 350Q725 220 661 126ZM441 110T484 134L401 213L480
298L564 218Q591 274 591 350Q591 458 537 524T380 590Q278 590 224 524T169 350Q169 242 223 176T380 110Q441 110 484 134Z" />
<glyph unicode="R" glyph-name="R" horiz-adv-x="626" d="M77 700H333Q445 700 509 647T574 488Q574 415 543 369T455 294L613 0H470L335 260H330H205V0H77V700ZM299 367Q440 367 440 481Q440 536 408 564T304 593H205V367H299Z" />
<glyph unicode="S" glyph-name="S" horiz-adv-x="580" d="M221 -14T154 2T48 37L63 173Q195 109 295 109Q348 109 378 129T408 190Q408 220 392 239T344 272T245 310Q181 332 139 356T73 419T48 514Q48 604 114 659T303 714Q361 714 418 701T524 669L511 538Q449
565 398 578T295 592Q238 592 208 573T178 518Q178 490 194 472T237 442T319 413Q440 375 495 326T551 190Q551 108 494 47T280 -14Q221 -14 154 2Z" />
<glyph unicode="T" glyph-name="T" horiz-adv-x="554" d="M213 576H15V700H539V576H341V0H213V576Z" />
<glyph unicode="U" glyph-name="U" horiz-adv-x="718" d="M215 -14T142 69T69 300V700H197V333Q197 260 210 212T258 136T359 109Q424 109 459 136T508 211T521 333V700H649V300Q649 153 576 70T359 -14Q215 -14 142 69Z" />
<glyph unicode="V" glyph-name="V" horiz-adv-x="619" d="M619 700L370 0H249L0 700H129L309 185L490 700H619Z" />
<glyph unicode="W" glyph-name="W" horiz-adv-x="963" d="M10 700H143L283 203L439 700H528L690 216L824 700H957L752 0H639L483 467L328 0H207L10 700Z" />
<glyph unicode="X" glyph-name="X" horiz-adv-x="626" d="M243 359L10 700H152L313 462L474 700H616L383 359L628 0H486L313 255L140 0H-2L243 359Z" />
<glyph unicode="Y" glyph-name="Y" horiz-adv-x="604" d="M612 700L366 283V0H238V283L-8 700H132L302 398L472 700H612Z" />
<glyph unicode="Z" glyph-name="Z" horiz-adv-x="548" d="M206 114H536V0H8L343 586H53V700H541L206 114Z" />
<glyph unicode="[" glyph-name="bracketleft" horiz-adv-x="335" d="M67 750H324V641H180V-27H324V-136H67V750Z" />
<glyph unicode="\" glyph-name="backslash" horiz-adv-x="339" d="M-8 700H117L365 -85H240L-8 700Z" />
<glyph unicode="]" glyph-name="bracketright" horiz-adv-x="335" d="M11 -27H155V641H11V750H268V-136H11V-27Z" />
<glyph unicode="^" glyph-name="asciicircum" horiz-adv-x="512" d="M50 547L256 759L462 547V415L256 602L50 415V547Z" />
<glyph unicode="_" glyph-name="underscore" horiz-adv-x="558" d="M-1 -36H559V-130H-1V-36Z" />
<glyph unicode="`" glyph-name="grave" horiz-adv-x="477" d="M140 646V761L337 649V570L140 646Z" />
<glyph unicode="a" glyph-name="a" horiz-adv-x="498" d="M104 -10T63 30T21 140Q21 205 68 244T179 300T302 319Q300 363 280 382T212 401Q179 401 148 392T75 363L64 464Q155 508 246 508Q334 508 380 460T427 307V172Q427 134 430 118T442 97T471 92H487L476
-10H431Q390 -10 362 5T319 48Q295 21 254 6T166 -10Q104 -10 63 30ZM237 85T261 94T303 121V235Q243 232 197 209T151 145Q151 114 167 100T218 85Q237 85 261 94Z" />
<glyph unicode="b" glyph-name="b" horiz-adv-x="571" d="M389 508T440 473T517 379T543 249Q543 178 517 119T440 25T318 -10Q239 -10 175 33L173 0H57V750H181V463Q242 508 318 508Q389 508 440 473ZM355 92T385 135T416 249Q416 320 386 363T300 406Q237 406
206 364T175 249Q175 176 206 134T300 92Q355 92 385 135Z" />
<glyph unicode="c" glyph-name="c" horiz-adv-x="455" d="M207 -10T148 24T58 118T28 249Q28 322 58 381T148 475T294 510Q371 510 428 478L418 378Q364 406 306 406Q235 406 195 363T155 249Q155 181 196 137T305 92Q362 92 419 125L430 20Q403 6 367 -2T290
-10Q207 -10 148 24Z" />
<glyph unicode="d" glyph-name="d" horiz-adv-x="571" d="M514 750V0H397L395 32Q366 11 335 1T260 -10Q187 -10 135 25T55 119T28 249Q28 320 55 379T134 473T260 508Q333 508 390 468V750H514ZM337 92T366 134T396 249Q396 322 367 364T278 406Q220 406 188
363T155 249Q155 178 187 135T278 92Q337 92 366 134Z" />
<glyph unicode="e" glyph-name="e" horiz-adv-x="515" d="M212 -10T151 25T59 120T28 253Q28 323 57 381T141 473T272 508Q342 508 390 479T463 401T488 291Q488 261 480 223H157Q167 157 209 125T310 92Q391 92 460 133L466 28Q434 11 392 1T299 -10Q212 -10
151 25ZM362 307Q362 346 340 376T272 406Q226 406 198 379T160 307H362Z" />
<glyph unicode="f" glyph-name="f" horiz-adv-x="340" d="M88 398H17L28 500H88V606Q88 673 127 711T240 750Q281 750 321 741L310 641Q293 646 271 646Q212 646 212 584V500H322V398H212V0H88V398Z" />
<glyph unicode="g" glyph-name="g" horiz-adv-x="501" d="M150 -252T87 -214T24 -109Q24 -37 105 9Q61 36 61 80Q61 103 74 121T111 150Q73 177 54 219T34 311Q34 366 58 411T128 483T237 510Q303 510 351 478Q368 487 396 493T458 500H490L482 422H437Q420 422
409 421Q439 375 439 311Q439 256 416 211T346 139T237 112Q214 112 184 119Q173 114 173 103Q173 90 188 83T241 70L327 59Q499 36 499 -86Q499 -162 435 -207T256 -252Q150 -252 87 -214ZM280 204T303 232T327 311Q327 361 304 389T237 418Q193 418 170 390T146
311Q146 261 169 233T237 204Q280 204 303 232ZM389 -158T389 -95Q389 -67 367 -54T294 -32L184 -16Q127 -39 127 -86Q127 -122 162 -140T261 -158Q389 -158 389 -95Z" />
<glyph unicode="h" glyph-name="h" horiz-adv-x="551" d="M405 508T451 447T498 278V0H374V269Q374 340 351 373T278 406Q219 406 181 363V0H57V750H181V468Q211 487 242 497T310 508Q405 508 451 447Z" />
<glyph unicode="i" glyph-name="i" horiz-adv-x="240" d="M58 700H182V576H58V700ZM58 500H182V0H58V500Z" />
<glyph unicode="j" glyph-name="j" horiz-adv-x="240" d="M58 700H182V576H58V700ZM-2 -140Q33 -140 45 -123T58 -60V500H182V-111Q182 -186 150 -214T48 -242H9L-2 -140Z" />
<glyph unicode="k" glyph-name="k" horiz-adv-x="485" d="M57 750H181V295L336 500H476L294 260L480 0H340L181 222V0H57V750Z" />
<glyph unicode="l" glyph-name="l" horiz-adv-x="263" d="M122 -10T90 26T58 121V750H182V172Q182 132 186 116T202 96T242 92L231 -10H186Q122 -10 90 26Z" />
<glyph unicode="m" glyph-name="m" horiz-adv-x="869" d="M719 508T767 448T816 278V0H692V269Q692 340 670 373T598 406Q549 406 524 373T499 278V0H375V269Q375 340 352 373T279 406Q220 406 182 363V0H58V500H164L168 460Q236 508 315 508Q411 508 458 439Q484
472 526 490T619 508Q719 508 767 448Z" />
<glyph unicode="n" glyph-name="n" horiz-adv-x="552" d="M403 508T451 446T499 279V0H375V269Q375 339 352 372T276 406Q219 406 182 363V0H58V500H174L176 465Q239 508 310 508Q403 508 451 446Z" />
<glyph unicode="o" glyph-name="o" horiz-adv-x="570" d="M206 -10T148 25T59 119T28 249Q28 320 59 380T148 475T285 510Q364 510 422 475T511 380T542 249Q542 178 511 119T422 25T285 -10Q206 -10 148 25ZM346 92T380 135T415 249Q415 321 381 364T285 408Q224
408 190 365T155 249Q155 178 189 135T285 92Q346 92 380 135Z" />
<glyph unicode="p" glyph-name="p" horiz-adv-x="572" d="M390 508T441 473T518 379T544 249Q544 178 518 119T441 25T319 -10Q274 -10 243 -1T182 30V-242H58V500H158L171 454Q203 481 238 494T319 508Q390 508 441 473ZM355 92T386 135T417 249Q417 320 386
363T300 406Q238 406 207 364T176 249Q176 176 207 134T300 92Q355 92 386 135Z" />
<glyph unicode="q" glyph-name="q" horiz-adv-x="572" d="M514 500V-242H390V31Q337 -10 258 -10Q186 -10 134 25T55 119T28 249Q28 320 55 379T134 473T258 508Q342 508 403 454L419 500H514ZM337 92T366 134T396 249Q396 322 367 364T278 406Q220 406 188 363T155
249Q155 178 187 135T278 92Q337 92 366 134Z" />
<glyph unicode="r" glyph-name="r" horiz-adv-x="330" d="M58 500H174L177 447Q199 472 233 491T306 510Q318 510 328 508L319 386Q300 391 276 391Q245 391 219 377T182 341V0H58V500Z" />
<glyph unicode="s" glyph-name="s" horiz-adv-x="423" d="M152 -10T113 -1T31 27L42 133Q84 108 120 96T196 83Q272 83 272 133Q272 160 252 174T180 209Q106 236 71 270T36 364Q36 429 86 469T221 510Q306 510 376 471L365 365Q327 391 294 405T223 419Q191 419
174 406T156 369Q156 350 166 338T196 317T259 290Q332 262 364 229T396 139Q396 68 345 29T200 -10Q152 -10 113 -1Z" />
<glyph unicode="t" glyph-name="t" horiz-adv-x="344" d="M155 -10T121 28T87 121V398H16L27 500H87V610L211 623V500H321V398H211V172Q211 132 215 117T234 97T287 92H321L310 -10H221Q155 -10 121 28Z" />
<glyph unicode="u" glyph-name="u" horiz-adv-x="552" d="M494 500V0H378L376 30Q353 13 323 2T265 -10Q154 -10 104 54T53 231V500H177V231Q177 161 200 128T276 94Q334 94 370 136V500H494Z" />
<glyph unicode="v" glyph-name="v" horiz-adv-x="496" d="M3 500H125L248 154L371 500H493L301 0H195L3 500Z" />
<glyph unicode="w" glyph-name="w" horiz-adv-x="726" d="M10 500H131L217 151L311 490H415L508 151L595 500H716L570 0H466L363 326L260 0H156L10 500Z" />
<glyph unicode="x" glyph-name="x" horiz-adv-x="491" d="M176 250L10 500H158L249 355L333 500H481L315 250L481 0H333L242 145L158 0H10L176 250Z" />
<glyph unicode="y" glyph-name="y" horiz-adv-x="537" d="M209 33L1 500H139L267 178L397 500H535L222 -242H98L209 33Z" />
<glyph unicode="z" glyph-name="z" horiz-adv-x="472" d="M457 105V0H18L261 395H41V500H455L212 105H457Z" />
<glyph unicode="{" glyph-name="braceleft" horiz-adv-x="338" d="M252 641T229 622T205 560Q205 539 209 491Q213 443 213 424Q213 379 195 352T142 307Q177 291 195 263T213 190Q213 171 209 123Q205 75 205 54Q205 11 228 -8T299 -27H326V-136H289Q197 -136
153 -93T108 24Q108 43 112 89Q116 137 116 160Q116 216 97 241T30 267V347Q78 347 97 372T116 454Q116 477 112 525Q108 571 108 590Q108 664 152 707T289 750H326V641H299Q252 641 229 622Z" />
<glyph unicode="|" glyph-name="bar" horiz-adv-x="224" d="M50 750H174V-210H50V750Z" />
<glyph unicode="}" glyph-name="braceright" horiz-adv-x="338" d="M222 398T241 373T308 347V267Q260 267 241 242T222 160Q222 137 226 89Q230 43 230 24Q230 -50 186 -93T49 -136H12V-27H39Q86 -27 109 -8T133 54Q133 75 129 123Q125 171 125 190Q125 275 196
307Q125 339 125 424Q125 443 129 491Q133 539 133 560Q133 603 110 622T39 641H12V750H49Q141 750 185 707T230 590Q230 571 226 525Q222 477 222 454Q222 398 241 373Z" />
<glyph unicode="~" glyph-name="asciitilde" horiz-adv-x="465" d="M299 289T281 295T240 314Q213 327 199 332T166 337Q148 337 138 326T127 296H40Q42 361 69 395T146 429Q167 429 186 423T230 403Q254 392 268 387T299 381Q317 381 327 392T338 422H425Q423
357 396 323T319 289Q299 289 281 295Z" />
<glyph unicode="&#xa0;" glyph-name="uni00A0" horiz-adv-x="225" />
<glyph unicode="&#xa1;" glyph-name="exclamdown" horiz-adv-x="230" d="M190 500V364H60V500H190ZM176 293V264L187 -200H63L74 264V293H176Z" />
<glyph unicode="&#xa2;" glyph-name="cent" horiz-adv-x="455" d="M388 -3T320 -9L328 -144H230L238 -6Q138 9 83 79T28 249Q28 348 82 418T238 506L230 639H328L320 509Q382 503 428 478L418 378Q364 406 306 406Q235 406 195 363T155 249Q155 181 196 137T305
92Q362 92 419 125L430 20Q388 -3 320 -9Z" />
<glyph unicode="&#xa3;" glyph-name="sterling" horiz-adv-x="520" d="M494 120V0H48Q76 81 91 149T116 312H40V400H126L134 478Q146 593 201 653T359 714Q427 714 489 679L479 548Q449 570 423 581T366 592Q273 592 262 486L253 400H432V312H243Q236 249 227
205T204 120H494Z" />
<glyph unicode="&#xa4;" glyph-name="currency" horiz-adv-x="742" d="M639 256T587 187L692 82L635 26L528 133Q462 89 371 89Q281 89 213 133L107 26L50 82L155 187Q103 254 103 348Q103 440 155 508L50 614L107 670L213 563Q281 607 371 607Q460 607 528 563L635
670L692 614L587 508Q639 440 639 348Q639 256 587 187ZM437 201T474 241T512 348Q512 415 475 455T371 495Q305 495 268 455T230 348Q230 281 267 241T371 201Q437 201 474 241Z" />
<glyph unicode="&#xa5;" glyph-name="yen" horiz-adv-x="604" d="M407 352H507V264H366V212H507V124H366V0H238V124H97V212H238V264H97V352H197L-8 700H132L302 398L472 700H612L407 352Z" />
<glyph unicode="&#xa6;" glyph-name="brokenbar" horiz-adv-x="224" d="M50 750H174V342H50V750ZM50 198H174V-210H50V198Z" />
<glyph unicode="&#xa7;" glyph-name="section" horiz-adv-x="460" d="M140 -85T64 -44L73 61Q104 40 143 26T214 11Q250 11 271 26T292 69Q292 101 267 120T189 163Q140 185 111 203T60 253T39 332Q39 417 124 479Q108 493 95 524T81 594Q81 661 126 705T253 750Q291
750 330 738T396 709L387 604Q355 625 315 639T244 654Q212 654 190 642T168 604Q168 576 191 558T265 516Q314 493 345 473T398 418T421 333Q421 289 399 251T335 186Q357 168 367 143T378 82Q378 14 338 -35T207 -85Q140 -85 64 -44ZM303 245T315 265T328 311Q328
338 312 358T266 394T179 437Q134 405 134 354Q134 315 169 289T284 231Q303 245 315 265Z" />
<glyph unicode="&#xa8;" glyph-name="dieresis" horiz-adv-x="498" d="M100 681H196V591H100V681ZM302 681H398V591H302V681Z" />
<glyph unicode="&#xa9;" glyph-name="copyright" horiz-adv-x="701" d="M261 36T190 77T79 193T39 365Q39 462 79 536T190 652T351 693Q441 693 511 652T622 537T662 365Q662 268 622 193T512 77T351 36Q261 36 190 77ZM464 106T524 177T584 365Q584 481 524 552T351
623Q237 623 177 552T117 365Q117 249 177 178T351 106Q464 106 524 177ZM287 190T241 238T195 363Q195 441 240 489T359 537Q411 537 461 514L451 429Q424 440 403 446T359 452Q324 452 305 429T286 363Q286 322 305 298T359 274Q382 274 403 280T451 299L461
215Q440 203 413 197T359 190Q287 190 241 238Z" />
<glyph unicode="&#xaa;" glyph-name="ordfeminine" horiz-adv-x="361" d="M80 434T55 456T30 517Q30 611 189 629Q189 647 149 647Q107 647 60 632L55 713Q123 732 174 732Q229 732 261 704T293 629V543Q293 529 297 524T309 519H325L321 434H272Q226 434 205
466Q191 451 168 443T121 434Q80 434 55 456ZM176 505T190 514V563Q165 560 153 552T140 527Q140 516 146 511T162 505Q176 505 190 514Z" />
<glyph unicode="&#xab;" glyph-name="guillemotleft" horiz-adv-x="607" d="M11 284L163 490H310L158 284L310 78H163L11 284ZM271 284L423 490H570L418 284L570 78H423L271 284Z" />
<glyph unicode="&#xac;" glyph-name="logicalnot" horiz-adv-x="510" d="M368 312H40V406H470V151H368V312Z" />
<glyph unicode="&#xad;" glyph-name="uni00AD" horiz-adv-x="444" d="M67 358H377V264H67V358Z" />
<glyph unicode="&#xae;" glyph-name="registered" horiz-adv-x="701" d="M262 37T191 78T80 193T40 365Q40 462 80 536T190 652T351 693Q440 693 511 652T621 537T661 365Q661 268 621 194T511 78T351 37Q262 37 191 78ZM464 107T523 178T583 365Q583 481 524
551T351 622Q238 622 178 552T118 365Q118 250 178 179T351 107Q464 107 523 178ZM225 538H352Q409 538 440 511T471 428Q471 400 457 377T424 341L498 203H405L347 315H313V203H225V538ZM345 396Q363 396 372 405T381 430Q381 463 345 463H313V396H345Z" />
<glyph unicode="&#xaf;" glyph-name="overscore" horiz-adv-x="528" d="M100 672H428V591H100V672Z" />
<glyph unicode="&#xb0;" glyph-name="degree" horiz-adv-x="289" d="M82 482T45 521T8 618Q8 676 45 715T144 755Q207 755 244 716T281 618Q281 560 244 521T144 482Q82 482 45 521ZM177 543T194 563T212 618Q212 653 195 673T144 694Q113 694 95 673T76 618Q76
584 94 564T144 543Q177 543 194 563Z" />
<glyph unicode="&#xb1;" glyph-name="plusminus" horiz-adv-x="450" d="M176 315H40V405H176V535H274V405H410V315H274V185H176V315ZM40 137H410V47H40V137Z" />
<glyph unicode="&#xb2;" glyph-name="uni00B2" horiz-adv-x="326" d="M300 473V386H30L141 544Q164 577 172 596T181 636Q181 658 168 671T130 685Q87 685 39 642L32 734Q92 772 156 772Q213 772 248 740T283 656Q283 623 270 591T224 513L196 473H300Z" />
<glyph unicode="&#xb3;" glyph-name="uni00B3" horiz-adv-x="329" d="M268 569T284 545T301 487Q301 434 262 403T162 372Q88 372 28 406L47 492Q73 476 95 468T143 459Q169 459 184 468T199 496Q199 516 185 527T140 539H109V616H141Q162 616 174 625T187 651Q187
666 176 675T143 685Q100 685 56 653L49 744Q103 772 168 772Q224 772 256 743T289 668Q289 609 238 581Q268 569 284 545Z" />
<glyph unicode="&#xb4;" glyph-name="acute" horiz-adv-x="477" d="M140 649L337 761V646L140 570V649Z" />
<glyph unicode="&#xb5;" glyph-name="uni00B5" horiz-adv-x="608" d="M67 500H191V211Q191 151 214 123T290 94Q348 94 384 136V500H508V172Q508 134 511 118T523 97T552 92H568L557 -10H512Q437 -10 404 42Q352 -8 279 -8Q232 -8 191 9V-242H67V500Z" />
<glyph unicode="&#xb6;" glyph-name="paragraph" horiz-adv-x="625" d="M292 229Q210 234 151 268T63 355T33 466Q33 527 65 580T163 667T320 700H580V593H511V0H423V593H361V0H292V229Z" />
<glyph unicode="&#xb7;" glyph-name="middot" horiz-adv-x="232" d="M54 343H178V213H54V343Z" />
<glyph unicode="&#xb8;" glyph-name="cedilla" horiz-adv-x="395" d="M245 -54T270 -77T295 -141Q295 -188 263 -213T182 -239Q136 -239 100 -220L119 -161Q155 -178 184 -178Q206 -178 218 -170T231 -145Q231 -110 180 -110Q157 -110 132 -117L160 0H215L199
-54H201Q245 -54 270 -77Z" />
<glyph unicode="&#xb9;" glyph-name="uni00B9" horiz-adv-x="249" d="M104 651Q71 626 39 618L34 698Q59 706 84 723T124 758H199V386H104V651Z" />
<glyph unicode="&#xba;" glyph-name="ordmasculine" horiz-adv-x="377" d="M139 434T103 454T48 509T28 583Q28 622 47 656T103 711T188 732Q237 732 273 712T329 657T348 583Q348 544 329 510T274 455T188 434Q139 434 103 454ZM213 511T228 532T243 583Q243
612 228 633T188 655Q163 655 148 634T133 583Q133 554 148 533T188 511Q213 511 228 532Z" />
<glyph unicode="&#xbb;" glyph-name="guillemotright" horiz-adv-x="607" d="M449 284L297 490H444L596 284L444 78H297L449 284ZM189 284L37 490H184L336 284L184 78H37L189 284Z" />
<glyph unicode="&#xbc;" glyph-name="onequarter" horiz-adv-x="695" d="M356 593Q323 568 291 560L286 640Q311 648 336 665T376 700H451V328H356V593ZM492 700H591L179 0H79L492 700ZM657 152V80H608V0H523V80H319L527 372H608V152H657ZM523 248L498 212L455
152H523V248Z" />
<glyph unicode="&#xbd;" glyph-name="onehalf" horiz-adv-x="729" d="M356 593Q323 568 291 560L286 640Q311 648 336 665T376 700H451V328H356V593ZM483 700H582L170 0H70L483 700ZM699 87V0H429L540 158Q563 191 571 210T580 250Q580 272 567 285T529 299Q486
299 438 256L431 348Q491 386 555 386Q612 386 647 354T682 270Q682 237 669 205T623 127L595 87H699Z" />
<glyph unicode="&#xbe;" glyph-name="threequarters" horiz-adv-x="752" d="M268 511T284 487T301 429Q301 376 262 345T162 314Q88 314 28 348L47 434Q73 418 95 410T143 401Q169 401 184 410T199 438Q199 458 185 469T140 481H109V558H141Q162 558 174 567T187
593Q187 608 176 617T143 627Q100 627 56 595L49 686Q103 714 168 714Q224 714 256 685T289 610Q289 551 238 523Q268 511 284 487ZM560 700H659L247 0H147L560 700ZM714 152V80H665V0H580V80H376L584 372H665V152H714ZM580 248L555 212L512 152H580V248Z" />
<glyph unicode="&#xbf;" glyph-name="questiondown" horiz-adv-x="437" d="M343 364H213V500H343V364ZM343 283Q343 230 322 194T261 117Q215 71 198 46T180 -15Q180 -51 204 -71T269 -91Q307 -91 340 -82T413 -53L427 -171Q383 -192 340 -203T239 -214Q178 -214
133 -191T64 -128T40 -37Q40 12 63 51T135 139Q173 177 192 207T212 277V293H343V283Z" />
<glyph unicode="&#xc0;" glyph-name="Agrave" horiz-adv-x="625" d="M440 166H185L127 0H3L252 700H373L622 0H498L440 166ZM400 278L313 528L225 278H400ZM214 817V923L411 828V759L214 817Z" />
<glyph unicode="&#xc1;" glyph-name="Aacute" horiz-adv-x="625" d="M440 166H185L127 0H3L252 700H373L622 0H498L440 166ZM400 278L313 528L225 278H400ZM215 828L412 923V817L215 759V828Z" />
<glyph unicode="&#xc2;" glyph-name="Acircumflex" horiz-adv-x="625" d="M440 166H185L127 0H3L252 700H373L622 0H498L440 166ZM400 278L313 528L225 278H400ZM181 819L313 911L445 819V745L313 817L181 745V819Z" />
<glyph unicode="&#xc3;" glyph-name="Atilde" horiz-adv-x="625" d="M440 166H185L127 0H3L252 700H373L622 0H498L440 166ZM400 278L313 528L225 278H400ZM384 777T368 782T323 800Q318 802 297 810T260 819Q227 819 227 784H151Q151 889 226 889Q242 889 258
884T303 866Q308 864 329 856T366 847Q399 847 399 882H475Q475 777 400 777Q384 777 368 782Z" />
<glyph unicode="&#xc4;" glyph-name="Adieresis" horiz-adv-x="625" d="M440 166H185L127 0H3L252 700H373L622 0H498L440 166ZM400 278L313 528L225 278H400ZM164 869H260V783H164V869ZM366 869H462V783H366V869Z" />
<glyph unicode="&#xc5;" glyph-name="Aring" horiz-adv-x="625" d="M440 166H185L127 0H3L252 700H373L622 0H498L440 166ZM400 278L313 528L225 278H400ZM265 754T236 782T207 851Q207 892 236 920T313 949Q361 949 390 921T419 851Q419 810 390 782T313 754Q265
754 236 782ZM333 806T346 818T359 851Q359 870 346 883T313 896Q293 896 280 883T267 851Q267 831 280 819T313 806Q333 806 346 818Z" />
<glyph unicode="&#xc6;" glyph-name="AE" horiz-adv-x="866" d="M833 124V0H397V169H203L122 0H-11L330 700H824V576H528V427H756V303H528V124H833ZM397 293V573L263 293H397Z" />
<glyph unicode="&#xc7;" glyph-name="Ccedilla" horiz-adv-x="609" d="M493 -13T400 -14L388 -54H390Q434 -54 459 -77T484 -141Q484 -188 452 -213T371 -239Q325 -239 289 -220L308 -161Q344 -178 373 -178Q395 -178 407 -170T420 -145Q420 -110 369 -110Q346
-110 321 -117L346 -11Q253 -1 183 46T74 171T35 350Q35 458 81 540T210 668T398 714Q499 714 579 673L565 551Q522 570 483 580T397 591Q290 591 233 525T175 350Q175 241 231 175T394 109Q441 109 480 119T565 149L579 27Q493 -13 400 -14Z" />
<glyph unicode="&#xc8;" glyph-name="Egrave" horiz-adv-x="568" d="M77 700H525V576H208V427H454V303H208V124H535V0H77V700ZM212 817V923L409 828V759L212 817Z" />
<glyph unicode="&#xc9;" glyph-name="Eacute" horiz-adv-x="568" d="M77 700H525V576H208V427H454V303H208V124H535V0H77V700ZM213 828L410 923V817L213 759V828Z" />
<glyph unicode="&#xca;" glyph-name="Ecircumflex" horiz-adv-x="568" d="M77 700H525V576H208V427H454V303H208V124H535V0H77V700ZM179 819L311 911L443 819V745L311 817L179 745V819Z" />
<glyph unicode="&#xcb;" glyph-name="Edieresis" horiz-adv-x="568" d="M77 700H525V576H208V427H454V303H208V124H535V0H77V700ZM162 869H258V783H162V869ZM364 869H460V783H364V869Z" />
<glyph unicode="&#xcc;" glyph-name="Igrave" horiz-adv-x="282" d="M77 700H205V0H77V700ZM42 817V923L239 828V759L42 817Z" />
<glyph unicode="&#xcd;" glyph-name="Iacute" horiz-adv-x="282" d="M77 700H205V0H77V700ZM43 828L240 923V817L43 759V828Z" />
<glyph unicode="&#xce;" glyph-name="Icircumflex" horiz-adv-x="282" d="M77 700H205V0H77V700ZM9 819L141 911L273 819V745L141 817L9 745V819Z" />
<glyph unicode="&#xcf;" glyph-name="Idieresis" horiz-adv-x="282" d="M77 700H205V0H77V700ZM-8 869H88V783H-8V869ZM194 869H290V783H194V869Z" />
<glyph unicode="&#xd0;" glyph-name="Eth" horiz-adv-x="731" d="M88 309H23V403H88V700H350Q450 700 528 658T651 537T695 350Q695 242 651 163T529 42T350 0H88V309ZM350 123Q450 123 502 183T555 350Q555 457 503 517T350 577H216V403H338V309H216V123H350Z" />
<glyph unicode="&#xd1;" glyph-name="Ntilde" horiz-adv-x="707" d="M77 700H203L502 248V700H630V0H525L205 480V0H77V700ZM424 777T408 782T363 800Q358 802 337 810T300 819Q267 819 267 784H191Q191 889 266 889Q282 889 298 884T343 866Q348 864 369 856T406
847Q439 847 439 882H515Q515 777 440 777Q424 777 408 782Z" />
<glyph unicode="&#xd2;" glyph-name="Ograve" horiz-adv-x="760" d="M281 -14T203 31T80 159T35 350Q35 458 79 540T202 668T380 714Q479 714 557 669T680 541T725 350Q725 242 681 160T558 32T380 -14Q281 -14 203 31ZM482 110T536 176T591 350Q591 458 537 524T380
590Q278 590 224 524T169 350Q169 242 223 176T380 110Q482 110 536 176ZM281 817V923L478 828V759L281 817Z" />
<glyph unicode="&#xd3;" glyph-name="Oacute" horiz-adv-x="760" d="M281 -14T203 31T80 159T35 350Q35 458 79 540T202 668T380 714Q479 714 557 669T680 541T725 350Q725 242 681 160T558 32T380 -14Q281 -14 203 31ZM482 110T536 176T591 350Q591 458 537 524T380
590Q278 590 224 524T169 350Q169 242 223 176T380 110Q482 110 536 176ZM282 828L479 923V817L282 759V828Z" />
<glyph unicode="&#xd4;" glyph-name="Ocircumflex" horiz-adv-x="760" d="M281 -14T203 31T80 159T35 350Q35 458 79 540T202 668T380 714Q479 714 557 669T680 541T725 350Q725 242 681 160T558 32T380 -14Q281 -14 203 31ZM482 110T536 176T591 350Q591 458
537 524T380 590Q278 590 224 524T169 350Q169 242 223 176T380 110Q482 110 536 176ZM248 819L380 911L512 819V745L380 817L248 745V819Z" />
<glyph unicode="&#xd5;" glyph-name="Otilde" horiz-adv-x="760" d="M281 -14T203 31T80 159T35 350Q35 458 79 540T202 668T380 714Q479 714 557 669T680 541T725 350Q725 242 681 160T558 32T380 -14Q281 -14 203 31ZM482 110T536 176T591 350Q591 458 537 524T380
590Q278 590 224 524T169 350Q169 242 223 176T380 110Q482 110 536 176ZM451 777T435 782T390 800Q385 802 364 810T327 819Q294 819 294 784H218Q218 889 293 889Q309 889 325 884T370 866Q375 864 396 856T433 847Q466 847 466 882H542Q542 777 467 777Q451
777 435 782Z" />
<glyph unicode="&#xd6;" glyph-name="Odieresis" horiz-adv-x="760" d="M281 -14T203 31T80 159T35 350Q35 458 79 540T202 668T380 714Q479 714 557 669T680 541T725 350Q725 242 681 160T558 32T380 -14Q281 -14 203 31ZM482 110T536 176T591 350Q591 458 537
524T380 590Q278 590 224 524T169 350Q169 242 223 176T380 110Q482 110 536 176ZM231 869H327V783H231V869ZM433 869H529V783H433V869Z" />
<glyph unicode="&#xd7;" glyph-name="multiply" horiz-adv-x="434" d="M284 277L402 159L335 92L217 210L99 92L32 159L150 277L32 395L99 462L217 344L335 462L402 395L284 277Z" />
<glyph unicode="&#xd8;" glyph-name="Oslash" horiz-adv-x="760" d="M669 576T697 506T725 350Q725 242 681 160T558 32T380 -14Q284 -14 210 27L162 -44H61L142 76Q91 124 63 194T35 350Q35 458 79 540T202 668T380 714Q476 714 550 673L598 744H699L618 624Q669
576 697 506ZM169 248T217 185L479 569Q437 590 380 590Q278 590 224 524T169 350Q169 248 217 185ZM482 110T536 176T591 350Q591 452 543 515L281 131Q323 110 380 110Q482 110 536 176Z" />
<glyph unicode="&#xd9;" glyph-name="Ugrave" horiz-adv-x="718" d="M215 -14T142 69T69 300V700H197V333Q197 260 210 212T258 136T359 109Q424 109 459 136T508 211T521 333V700H649V300Q649 153 576 70T359 -14Q215 -14 142 69ZM260 817V923L457 828V759L260 817Z" />
<glyph unicode="&#xda;" glyph-name="Uacute" horiz-adv-x="718" d="M215 -14T142 69T69 300V700H197V333Q197 260 210 212T258 136T359 109Q424 109 459 136T508 211T521 333V700H649V300Q649 153 576 70T359 -14Q215 -14 142 69ZM261 828L458 923V817L261 759V828Z" />
<glyph unicode="&#xdb;" glyph-name="Ucircumflex" horiz-adv-x="718" d="M215 -14T142 69T69 300V700H197V333Q197 260 210 212T258 136T359 109Q424 109 459 136T508 211T521 333V700H649V300Q649 153 576 70T359 -14Q215 -14 142 69ZM227 819L359 911L491 819V745L359
817L227 745V819Z" />
<glyph unicode="&#xdc;" glyph-name="Udieresis" horiz-adv-x="718" d="M215 -14T142 69T69 300V700H197V333Q197 260 210 212T258 136T359 109Q424 109 459 136T508 211T521 333V700H649V300Q649 153 576 70T359 -14Q215 -14 142 69ZM210 869H306V783H210V869ZM412
869H508V783H412V869Z" />
<glyph unicode="&#xdd;" glyph-name="Yacute" horiz-adv-x="604" d="M612 700L366 283V0H238V283L-8 700H132L302 398L472 700H612ZM204 828L401 923V817L204 759V828Z" />
<glyph unicode="&#xde;" glyph-name="Thorn" horiz-adv-x="568" d="M77 700H205V555H323Q433 555 490 505T547 360Q547 266 490 216T323 165H205V0H77V700ZM308 272Q368 272 392 294T417 360Q417 408 393 428T308 448H205V272H308Z" />
<glyph unicode="&#xdf;" glyph-name="germandbls" horiz-adv-x="630" d="M326 -14T275 -5V97Q325 88 375 88Q425 88 454 109T483 167Q483 203 461 226T392 278Q346 307 324 330T302 388Q302 417 317 439T375 502Q404 530 415 548T426 592Q426 624 401 643T329
662Q271 662 241 628T211 532V0H87V398H16L27 500H87V530Q87 645 153 704T331 764Q430 764 490 721T550 603Q550 570 541 547T516 506T470 461Q447 440 438 426T429 397Q429 378 444 364T495 327Q531 304 554 286T593 238T610 169Q610 109 578 68T491 7T374 -14Q326
-14 275 -5Z" />
<glyph unicode="&#xe0;" glyph-name="agrave" horiz-adv-x="498" d="M104 -10T63 30T21 140Q21 205 68 244T179 300T302 319Q300 363 280 382T212 401Q179 401 148 392T75 363L64 464Q155 508 246 508Q334 508 380 460T427 307V172Q427 134 430 118T442 97T471
92H487L476 -10H431Q390 -10 362 5T319 48Q295 21 254 6T166 -10Q104 -10 63 30ZM237 85T261 94T303 121V235Q243 232 197 209T151 145Q151 114 167 100T218 85Q237 85 261 94ZM147 646V761L344 649V570L147 646Z" />
<glyph unicode="&#xe1;" glyph-name="aacute" horiz-adv-x="498" d="M104 -10T63 30T21 140Q21 205 68 244T179 300T302 319Q300 363 280 382T212 401Q179 401 148 392T75 363L64 464Q155 508 246 508Q334 508 380 460T427 307V172Q427 134 430 118T442 97T471
92H487L476 -10H431Q390 -10 362 5T319 48Q295 21 254 6T166 -10Q104 -10 63 30ZM237 85T261 94T303 121V235Q243 232 197 209T151 145Q151 114 167 100T218 85Q237 85 261 94ZM148 649L345 761V646L148 570V649Z" />
<glyph unicode="&#xe2;" glyph-name="acircumflex" horiz-adv-x="498" d="M104 -10T63 30T21 140Q21 205 68 244T179 300T302 319Q300 363 280 382T212 401Q179 401 148 392T75 363L64 464Q155 508 246 508Q334 508 380 460T427 307V172Q427 134 430 118T442 97T471
92H487L476 -10H431Q390 -10 362 5T319 48Q295 21 254 6T166 -10Q104 -10 63 30ZM237 85T261 94T303 121V235Q243 232 197 209T151 145Q151 114 167 100T218 85Q237 85 261 94ZM114 633L246 745L378 633V554L246 637L114 554V633Z" />
<glyph unicode="&#xe3;" glyph-name="atilde" horiz-adv-x="498" d="M104 -10T63 30T21 140Q21 205 68 244T179 300T302 319Q300 363 280 382T212 401Q179 401 148 392T75 363L64 464Q155 508 246 508Q334 508 380 460T427 307V172Q427 134 430 118T442 97T471
92H487L476 -10H431Q390 -10 362 5T319 48Q295 21 254 6T166 -10Q104 -10 63 30ZM237 85T261 94T303 121V235Q243 232 197 209T151 145Q151 114 167 100T218 85Q237 85 261 94ZM314 578T298 584T257 601Q236 611 222 616T194 622Q178 622 169 613T160 586H75Q77
645 99 676T161 707Q178 707 194 701T235 684Q256 674 270 669T298 663Q314 663 323 672T332 699H417Q415 640 393 609T331 578Q314 578 298 584Z" />
<glyph unicode="&#xe4;" glyph-name="adieresis" horiz-adv-x="498" d="M104 -10T63 30T21 140Q21 205 68 244T179 300T302 319Q300 363 280 382T212 401Q179 401 148 392T75 363L64 464Q155 508 246 508Q334 508 380 460T427 307V172Q427 134 430 118T442 97T471
92H487L476 -10H431Q390 -10 362 5T319 48Q295 21 254 6T166 -10Q104 -10 63 30ZM237 85T261 94T303 121V235Q243 232 197 209T151 145Q151 114 167 100T218 85Q237 85 261 94ZM97 681H193V591H97V681ZM299 681H395V591H299V681Z" />
<glyph unicode="&#xe5;" glyph-name="aring" horiz-adv-x="498" d="M104 -10T63 30T21 140Q21 205 68 244T179 300T302 319Q300 363 280 382T212 401Q179 401 148 392T75 363L64 464Q155 508 246 508Q334 508 380 460T427 307V172Q427 134 430 118T442 97T471
92H487L476 -10H431Q390 -10 362 5T319 48Q295 21 254 6T166 -10Q104 -10 63 30ZM237 85T261 94T303 121V235Q243 232 197 209T151 145Q151 114 167 100T218 85Q237 85 261 94ZM199 570T171 598T142 667Q142 708 170 736T246 765Q293 765 321 737T350 667Q350 626
322 598T246 570Q199 570 171 598ZM265 622T277 634T290 667Q290 686 278 699T246 712Q227 712 215 699T202 667Q202 647 214 635T246 622Q265 622 277 634Z" />
<glyph unicode="&#xe6;" glyph-name="ae" horiz-adv-x="783" d="M756 261T748 223H436Q445 158 485 125T579 92Q616 92 655 103T728 133L734 28Q660 -10 572 -10Q506 -10 455 11T369 72Q333 34 284 12T185 -10Q111 -10 66 27T21 130Q21 220 102 263T299 307H305Q301
354 280 377T212 401Q179 401 148 392T75 363L64 464Q155 508 246 508Q342 508 387 452Q449 508 545 508Q613 508 660 479T732 401T756 291Q756 261 748 223ZM630 307Q630 350 609 378T545 406Q501 406 474 380T437 307H630ZM283 85T332 130Q312 170 307 223Q231
222 191 202T151 144Q151 115 172 100T226 85Q283 85 332 130Z" />
<glyph unicode="&#xe7;" glyph-name="ccedilla" horiz-adv-x="455" d="M333 -54T358 -77T383 -141Q383 -188 351 -213T270 -239Q224 -239 188 -220L207 -161Q243 -178 272 -178Q294 -178 306 -170T319 -145Q319 -110 268 -110Q245 -110 220 -117L246 -7Q177 2
128 38T53 128T28 249Q28 322 58 381T148 475T294 510Q371 510 428 478L418 378Q364 406 306 406Q235 406 195 363T155 249Q155 181 196 137T305 92Q362 92 419 125L430 20Q378 -7 300 -10L287 -54H289Q333 -54 358 -77Z" />
<glyph unicode="&#xe8;" glyph-name="egrave" horiz-adv-x="515" d="M212 -10T151 25T59 120T28 253Q28 323 57 381T141 473T272 508Q342 508 390 479T463 401T488 291Q488 261 480 223H157Q167 157 209 125T310 92Q391 92 460 133L466 28Q434 11 392 1T299 -10Q212
-10 151 25ZM362 307Q362 346 340 376T272 406Q226 406 198 379T160 307H362ZM182 646V761L379 649V570L182 646Z" />
<glyph unicode="&#xe9;" glyph-name="eacute" horiz-adv-x="515" d="M212 -10T151 25T59 120T28 253Q28 323 57 381T141 473T272 508Q342 508 390 479T463 401T488 291Q488 261 480 223H157Q167 157 209 125T310 92Q391 92 460 133L466 28Q434 11 392 1T299 -10Q212
-10 151 25ZM362 307Q362 346 340 376T272 406Q226 406 198 379T160 307H362ZM183 649L380 761V646L183 570V649Z" />
<glyph unicode="&#xea;" glyph-name="ecircumflex" horiz-adv-x="515" d="M212 -10T151 25T59 120T28 253Q28 323 57 381T141 473T272 508Q342 508 390 479T463 401T488 291Q488 261 480 223H157Q167 157 209 125T310 92Q391 92 460 133L466 28Q434 11 392 1T299
-10Q212 -10 151 25ZM362 307Q362 346 340 376T272 406Q226 406 198 379T160 307H362ZM149 633L281 745L413 633V554L281 637L149 554V633Z" />
<glyph unicode="&#xeb;" glyph-name="edieresis" horiz-adv-x="515" d="M212 -10T151 25T59 120T28 253Q28 323 57 381T141 473T272 508Q342 508 390 479T463 401T488 291Q488 261 480 223H157Q167 157 209 125T310 92Q391 92 460 133L466 28Q434 11 392 1T299
-10Q212 -10 151 25ZM362 307Q362 346 340 376T272 406Q226 406 198 379T160 307H362ZM132 681H228V591H132V681ZM334 681H430V591H334V681Z" />
<glyph unicode="&#xec;" glyph-name="igrave" horiz-adv-x="240" d="M58 500H182V0H58V500ZM21 646V761L218 649V570L21 646Z" />
<glyph unicode="&#xed;" glyph-name="iacute" horiz-adv-x="240" d="M58 500H182V0H58V500ZM22 649L219 761V646L22 570V649Z" />
<glyph unicode="&#xee;" glyph-name="icircumflex" horiz-adv-x="240" d="M58 500H182V0H58V500ZM-12 633L120 745L252 633V554L120 637L-12 554V633Z" />
<glyph unicode="&#xef;" glyph-name="idieresis" horiz-adv-x="240" d="M58 500H182V0H58V500ZM-29 681H67V591H-29V681ZM173 681H269V591H173V681Z" />
<glyph unicode="&#xf0;" glyph-name="eth" horiz-adv-x="501" d="M472 473T472 258Q472 158 438 98T352 12T242 -13Q179 -13 127 15T46 93T16 205Q16 261 40 312T113 394T228 426Q267 426 294 416T345 387Q333 490 272 552L161 490L123 553L208 600Q177 618 123
635L144 701Q222 682 284 643L387 700L424 637L347 594Q472 473 472 258ZM295 88T323 122T352 207Q352 259 323 294T241 329Q189 329 162 294T134 205Q134 155 162 122T244 88Q295 88 323 122Z" />
<glyph unicode="&#xf1;" glyph-name="ntilde" horiz-adv-x="552" d="M403 508T451 446T499 279V0H375V269Q375 339 352 372T276 406Q219 406 182 363V0H58V500H174L176 465Q239 508 310 508Q403 508 451 446ZM361 568T345 574T304 591Q283 601 269 606T241 612Q225
612 216 603T207 576H122Q124 635 146 666T208 697Q225 697 241 691T282 674Q303 664 317 659T345 653Q361 653 370 662T379 689H464Q462 630 440 599T378 568Q361 568 345 574Z" />
<glyph unicode="&#xf2;" glyph-name="ograve" horiz-adv-x="570" d="M206 -10T148 25T59 119T28 249Q28 320 59 380T148 475T285 510Q364 510 422 475T511 380T542 249Q542 178 511 119T422 25T285 -10Q206 -10 148 25ZM346 92T380 135T415 249Q415 321 381 364T285
408Q224 408 190 365T155 249Q155 178 189 135T285 92Q346 92 380 135ZM186 646V761L383 649V570L186 646Z" />
<glyph unicode="&#xf3;" glyph-name="oacute" horiz-adv-x="570" d="M206 -10T148 25T59 119T28 249Q28 320 59 380T148 475T285 510Q364 510 422 475T511 380T542 249Q542 178 511 119T422 25T285 -10Q206 -10 148 25ZM346 92T380 135T415 249Q415 321 381 364T285
408Q224 408 190 365T155 249Q155 178 189 135T285 92Q346 92 380 135ZM187 649L384 761V646L187 570V649Z" />
<glyph unicode="&#xf4;" glyph-name="ocircumflex" horiz-adv-x="570" d="M206 -10T148 25T59 119T28 249Q28 320 59 380T148 475T285 510Q364 510 422 475T511 380T542 249Q542 178 511 119T422 25T285 -10Q206 -10 148 25ZM346 92T380 135T415 249Q415 321 381
364T285 408Q224 408 190 365T155 249Q155 178 189 135T285 92Q346 92 380 135ZM153 633L285 745L417 633V554L285 637L153 554V633Z" />
<glyph unicode="&#xf5;" glyph-name="otilde" horiz-adv-x="570" d="M206 -10T148 25T59 119T28 249Q28 320 59 380T148 475T285 510Q364 510 422 475T511 380T542 249Q542 178 511 119T422 25T285 -10Q206 -10 148 25ZM346 92T380 135T415 249Q415 321 381 364T285
408Q224 408 190 365T155 249Q155 178 189 135T285 92Q346 92 380 135ZM353 578T337 584T296 601Q275 611 261 616T233 622Q217 622 208 613T199 586H114Q116 645 138 676T200 707Q217 707 233 701T274 684Q295 674 309 669T337 663Q353 663 362 672T371 699H456Q454
640 432 609T370 578Q353 578 337 584Z" />
<glyph unicode="&#xf6;" glyph-name="odieresis" horiz-adv-x="570" d="M206 -10T148 25T59 119T28 249Q28 320 59 380T148 475T285 510Q364 510 422 475T511 380T542 249Q542 178 511 119T422 25T285 -10Q206 -10 148 25ZM346 92T380 135T415 249Q415 321 381
364T285 408Q224 408 190 365T155 249Q155 178 189 135T285 92Q346 92 380 135ZM136 681H232V591H136V681ZM338 681H434V591H338V681Z" />
<glyph unicode="&#xf7;" glyph-name="divide" horiz-adv-x="490" d="M183 510H307V384H183V510ZM40 324H450V230H40V324ZM183 170H307V44H183V170Z" />
<glyph unicode="&#xf8;" glyph-name="oslash" horiz-adv-x="570" d="M501 409T521 358T542 249Q542 178 511 119T422 25T285 -10Q223 -10 173 12L138 -40H52L112 51Q72 87 50 138T28 249Q28 320 59 380T148 475T285 510Q350 510 402 485L432 530H518L462 445Q501
409 521 358ZM155 189T179 150L342 395Q319 408 285 408Q224 408 190 365T155 249Q155 189 179 150ZM346 92T380 135T415 249Q415 305 394 344L233 102Q258 92 285 92Q346 92 380 135Z" />
<glyph unicode="&#xf9;" glyph-name="ugrave" horiz-adv-x="552" d="M494 500V0H378L376 30Q353 13 323 2T265 -10Q154 -10 104 54T53 231V500H177V231Q177 161 200 128T276 94Q334 94 370 136V500H494ZM177 646V761L374 649V570L177 646Z" />
<glyph unicode="&#xfa;" glyph-name="uacute" horiz-adv-x="552" d="M494 500V0H378L376 30Q353 13 323 2T265 -10Q154 -10 104 54T53 231V500H177V231Q177 161 200 128T276 94Q334 94 370 136V500H494ZM178 649L375 761V646L178 570V649Z" />
<glyph unicode="&#xfb;" glyph-name="ucircumflex" horiz-adv-x="552" d="M494 500V0H378L376 30Q353 13 323 2T265 -10Q154 -10 104 54T53 231V500H177V231Q177 161 200 128T276 94Q334 94 370 136V500H494ZM144 633L276 745L408 633V554L276 637L144 554V633Z" />
<glyph unicode="&#xfc;" glyph-name="udieresis" horiz-adv-x="552" d="M494 500V0H378L376 30Q353 13 323 2T265 -10Q154 -10 104 54T53 231V500H177V231Q177 161 200 128T276 94Q334 94 370 136V500H494ZM127 681H223V591H127V681ZM329 681H425V591H329V681Z" />
<glyph unicode="&#xfd;" glyph-name="yacute" horiz-adv-x="537" d="M209 33L1 500H139L267 178L397 500H535L222 -242H98L209 33ZM170 649L367 761V646L170 570V649Z" />
<glyph unicode="&#xfe;" glyph-name="thorn" horiz-adv-x="582" d="M394 508T447 473T527 379T554 249Q554 178 527 119T447 25T320 -10Q276 -10 245 0T182 34V-242H58V750H182V465Q212 487 244 497T320 508Q394 508 447 473ZM362 92T394 135T427 249Q427 320
395 363T304 406Q240 406 208 364T176 249Q176 176 208 134T304 92Q362 92 394 135Z" />
<glyph unicode="&#xff;" glyph-name="ydieresis" horiz-adv-x="537" d="M209 33L1 500H139L267 178L397 500H535L222 -242H98L209 33ZM119 681H215V591H119V681ZM321 681H417V591H321V681Z" />
<glyph unicode="&#x2013;" glyph-name="endash" horiz-adv-x="553" d="M0 358H553V264H0V358Z" />
<glyph unicode="&#x2014;" glyph-name="emdash" horiz-adv-x="745" d="M0 358H745V264H0V358Z" />
<glyph unicode="&#x2018;" glyph-name="quoteleft" horiz-adv-x="232" d="M176 700L133 580H184V444H54V568L118 700H176Z" />
<glyph unicode="&#x2019;" glyph-name="quoteright" horiz-adv-x="226" d="M56 444L99 564H48V700H178V576L114 444H56Z" />
<glyph unicode="&#x201a;" glyph-name="quotesinglbase" horiz-adv-x="226" d="M312 -120L355 0H304V136H434V12L370 -120H312Z" />
<glyph unicode="&#x201c;" glyph-name="quotedblleft" horiz-adv-x="422" d="M176 713L133 593H184V457H54V581L118 713H176ZM366 713L323 593H374V457H244V581L308 713H366Z" />
<glyph unicode="&#x201d;" glyph-name="quotedblright" horiz-adv-x="416" d="M56 444L99 564H48V700H178V576L114 444H56ZM246 444L289 564H238V700H368V576L304 444H246Z" />
<glyph unicode="&#x201e;" glyph-name="quotedblbase" horiz-adv-x="416" d="M312 -120L355 0H304V136H434V12L370 -120H312ZM246 -120L289 0H238V136H368V12L304 -120H246Z" />
<glyph unicode="&#x2022;" glyph-name="bullet" horiz-adv-x="298" d="M104 169T72 201T40 278Q40 323 72 355T149 387Q194 387 226 355T258 278Q258 233 226 201T149 169Q104 169 72 201Z" />
<glyph unicode="&#x2039;" glyph-name="guilsinglleft" horiz-adv-x="347" d="M11 284L163 490H310L158 284L310 78H163L11 284Z" />
<glyph unicode="&#x203a;" glyph-name="guilsinglright" horiz-adv-x="347" d="M189 284L37 490H184L336 284L184 78H37L189 284Z" />
</font>
</defs>
</svg>
